[MagicStar] Gakkou no Kaidan 1995 [WEBDL] [1080p] [AMZN]

Category:
Date:
2021-02-27 11:36 UTC
Submitter:
Seeders:
4
Information:
AKA: Haunted School
Leechers:
2
File size:
8.5 GiB
Completed:
289
Info hash:
e8e0cba2a42ee816a6ed258a5b955b60fdf5cfd9
HD 1080p from Prime Video. ![alt text](https://i.ibb.co/0G63KCS/81-Gn-Usa-wn-L.jpg) ![alt text](https://i.ibb.co/mTs9FS8/Gakkou-no-Kaidan-1995-1080p-AMZN-WEB-DL-DDP2-0-H-264-Magic-Star-mkv.jpg) ``` General Unique ID : 68596679330777684711338055667671838669 (0x339B3D68D5204C39527B4513E51F2FCD) Complete name : Gakkou.no.Kaidan.1995.1080p.AMZN.WEB-DL.DDP2.0.H.264-MagicStar.mkv Format : Matroska Format version : Version 4 File size : 8.49 GiB Duration : 1 h 40 min Overall bit rate : 12.1 Mb/s Encoded date : UTC 2021-02-27 05:22:42 Writing application : mkvmerge v50.0.0 ('Awakenings') 64-bit Writing library : libebml v1.4.0 + libmatroska v1.6.2 Cover : Yes Attachments : cover.png Video ID : 1 Format : AVC Format/Info : Advanced Video Codec Format profile : High@L4 Format settings : CABAC / 4 Ref Frames Format settings, CABAC : Yes Format settings, Reference fra : 4 frames Codec ID : V_MPEG4/ISO/AVC Duration : 1 h 40 min Bit rate : 11.8 Mb/s Width : 1 920 pixels Height : 1 080 pixels Display aspect ratio : 16:9 Frame rate mode : Constant Frame rate : 23.976 (24000/1001) FPS Color space : YUV Chroma subsampling : 4:2:0 Bit depth : 8 bits Scan type : Progressive Bits/(Pixel*Frame) : 0.238 Stream size : 8.33 GiB (98%) Default : Yes Forced : No Color range : Limited Color primaries : BT.709 Transfer characteristics : BT.709 Matrix coefficients : BT.709 Audio ID : 2 Format : E-AC-3 Format/Info : Enhanced AC-3 Commercial name : Dolby Digital Plus Codec ID : A_EAC3 Duration : 1 h 40 min Bit rate mode : Constant Bit rate : 224 kb/s Channel(s) : 2 channels Channel layout : L R Sampling rate : 48.0 kHz Frame rate : 31.250 FPS (1536 SPF) Compression mode : Lossy Stream size : 162 MiB (2%) Language : Japanese Service kind : Complete Main Default : Yes Forced : No ```

File list

This is a good movie. I watched this years ago. This is also the live action of that funnily dubbed Ghost Stories anime.