[MagicStar] Yajuu Gari 1973 [WEBDL] [1080p] [AMZN]

Category:
Date:
2021-02-27 11:34 UTC
Submitter:
Seeders:
0
Information:
AKA: The Black Battlefront Kidnappers
Leechers:
2
File size:
8.3 GiB
Completed:
235
Info hash:
06000070a29481e3a8c072913f39f96b5684d160
HD 1080p from Prime Video. ![alt text](https://i.ibb.co/Z8gcdV7/81-Gm-Po-DJd-IL.jpg) ![alt text](https://i.ibb.co/Y3vTJ9N/Yajuu-Gari-1973-1080p-AMZN-WEB-DL-DDP2-0-H-264-Magic-Star-mkv.jpg) ``` General Unique ID : 176794752339650098017048426413935287465 (0x85016E45E758973C03276F60793FDCA9) Complete name : Yajuu.Gari.1973.1080p.AMZN.WEB-DL.DDP2.0.H.264-MagicStar.mkv Format : Matroska Format version : Version 4 File size : 8.32 GiB Duration : 1 h 23 min Overall bit rate mode : Variable Overall bit rate : 14.3 Mb/s Encoded date : UTC 2021-02-27 05:21:40 Writing application : mkvmerge v50.0.0 ('Awakenings') 64-bit Writing library : libebml v1.4.0 + libmatroska v1.6.2 Cover : Yes Attachments : cover.png Video ID : 1 Format : AVC Format/Info : Advanced Video Codec Format profile : High@L4 Format settings : CABAC / 4 Ref Frames Format settings, CABAC : Yes Format settings, Reference fra : 4 frames Codec ID : V_MPEG4/ISO/AVC Duration : 1 h 23 min Bit rate mode : Variable Bit rate : 14.1 Mb/s Maximum bit rate : 15.0 Mb/s Width : 1 440 pixels Height : 1 080 pixels Display aspect ratio : 4:3 Frame rate mode : Constant Frame rate : 23.976 (24000/1001) FPS Color space : YUV Chroma subsampling : 4:2:0 Bit depth : 8 bits Scan type : Progressive Bits/(Pixel*Frame) : 0.377 Stream size : 8.18 GiB (98%) Default : Yes Forced : No Color range : Limited Color primaries : BT.709 Transfer characteristics : BT.709 Matrix coefficients : BT.709 Audio ID : 2 Format : E-AC-3 Format/Info : Enhanced AC-3 Commercial name : Dolby Digital Plus Codec ID : A_EAC3 Duration : 1 h 23 min Bit rate mode : Constant Bit rate : 224 kb/s Channel(s) : 2 channels Channel layout : L R Sampling rate : 48.0 kHz Frame rate : 31.250 FPS (1536 SPF) Compression mode : Lossy Stream size : 134 MiB (2%) Language : Japanese Service kind : Complete Main Default : Yes Forced : No ```

File list

Someone has the English subtitles about the movie ?