[MagicStar] Sayonara Jupiter 1984 [WEBDL] [1080p] [AMZN]

Category:
Date:
2021-02-27 11:32 UTC
Submitter:
Seeders:
1
Information:
AKA: Bye-Bye Jupiter
Leechers:
1
File size:
13.1 GiB
Completed:
305
Info hash:
9e1d954a63b2fec242d3e506bc25e865d95995b4
HD 1080p from Prime Video. ![alt text](https://i.ibb.co/D8t4L0C/91-Sr-PUJ-1-HL.jpg) ![alt text](https://i.ibb.co/mBHc1MV/Sayonara-Jupiter-1984-1080p-AMZN-WEB-DL-DDP2-0-H-264-Magic-Star-mkv.jpg) ``` General Unique ID : 204861808060405316273764079566998314658 (0x9A1EF2F5A0BEDA13D2D90317C7359EA2) Complete name : Sayonara.Jupiter.1984.1080p.AMZN.WEB-DL.DDP2.0.H.264-MagicStar.mkv Format : Matroska Format version : Version 4 File size : 13.1 GiB Duration : 2 h 9 min Overall bit rate mode : Variable Overall bit rate : 14.5 Mb/s Encoded date : UTC 2021-02-27 05:12:48 Writing application : mkvmerge v50.0.0 ('Awakenings') 64-bit Writing library : libebml v1.4.0 + libmatroska v1.6.2 Cover : Yes Attachments : cover.png Video ID : 1 Format : AVC Format/Info : Advanced Video Codec Format profile : High@L4 Format settings : CABAC / 4 Ref Frames Format settings, CABAC : Yes Format settings, Reference fra : 4 frames Codec ID : V_MPEG4/ISO/AVC Duration : 2 h 9 min Bit rate mode : Variable Bit rate : 14.3 Mb/s Maximum bit rate : 15.0 Mb/s Width : 1 920 pixels Height : 1 080 pixels Display aspect ratio : 16:9 Frame rate mode : Constant Frame rate : 23.976 (24000/1001) FPS Color space : YUV Chroma subsampling : 4:2:0 Bit depth : 8 bits Scan type : Progressive Bits/(Pixel*Frame) : 0.288 Stream size : 12.9 GiB (98%) Writing library : x264 core 148 r2623 d5b2374 Encoding settings : cabac=1 / ref=4 / deblock=1:-1:-1 / analyse=0x3:0x133 / me=umh / subme=9 / psy=1 / psy_rd=1.00:0.15 / mixed_ref=1 / me_range=24 / chroma_me=1 / trellis=2 / 8x8dct=1 / cqm=0 / deadzone=21,11 / fast_pskip=1 / chroma_qp_offset=-3 / threads=34 / lookahead_threads=5 / sliced_threads=0 / nr=150 / decimate=1 / interlaced=0 / bluray_compat=0 / constrained_intra=0 / bframes=8 / b_pyramid=2 / b_adapt=2 / b_bias=0 / direct=3 / weightb=1 / open_gop=0 / weightp=2 / keyint=120 / keyint_min=61 / scenecut=0 / intra_refresh=0 / rc_lookahead=120 / rc=crf / mbtree=1 / crf=18.0 / qcomp=0.60 / qpmin=0 / qpmax=69 / qpstep=4 / vbv_maxrate=15000 / vbv_bufsize=31250 / crf_max=0.0 / nal_hrd=vbr / filler=0 / ip_ratio=1.40 / aq=3:1.00 Default : Yes Forced : No Color range : Limited Color primaries : BT.709 Transfer characteristics : BT.709 Matrix coefficients : BT.709 Audio ID : 2 Format : E-AC-3 Format/Info : Enhanced AC-3 Commercial name : Dolby Digital Plus Codec ID : A_EAC3 Duration : 2 h 9 min Bit rate mode : Constant Bit rate : 224 kb/s Channel(s) : 2 channels Channel layout : L R Sampling rate : 48.0 kHz Frame rate : 31.250 FPS (1536 SPF) Compression mode : Lossy Stream size : 207 MiB (2%) Language : Japanese Service kind : Complete Main Default : Yes Forced : No ```

File list

"Hey look, it's an Evangelion reference!"