Blood-C[HEVC][1080p][BD][ENG DUB][5.1]

Category:
Date:
2021-02-27 07:46 UTC
Submitter:
Seeders:
3
Information:
No information.
Leechers:
1
File size:
3.3 GiB
Completed:
98
Info hash:
e5edb2f7e45571606cb727cf2ed5b3397b55e0a2
Source https://nyaa.si/view/1054675 Video HEVC Main @ 5.1 Audio Opus @ 192kb/s Screenshot https://storage.animetosho.org/sframes/000c98d4_360160.png , https://storage.animetosho.org/sframes/000c98d4_700500.png , https://storage.animetosho.org/sframes/000c98d4_1391190.png Video ID : 1 Format : HEVC Format/Info : High Efficiency Video Coding Format profile : Main@L5.1@Main Codec ID : V_MPEGH/ISO/HEVC Duration : 24 min 9 s Bit rate : 1 073 kb/s Width : 1 920 pixels Height : 1 080 pixels Display aspect ratio : 16:9 Frame rate mode : Constant Frame rate : 23.976 (24000/1001) FPS Color space : YUV Chroma subsampling : 4:2:0 Bit depth : 8 bits Bits/(Pixel*Frame) : 0.022 Stream size : 185 MiB (84%) Title : x265/HEVC Video (10 bit) Language : Japanese Default : Yes Forced : Yes Audio ID : 2 Format : Opus Codec ID : A_OPUS Duration : 24 min 9 s Bit rate : 201 kb/s Channel(s) : 6 channels Channel layout : L R C Lb Rb LFE Sampling rate : 48.0 kHz Frame rate : 50.000 FPS (960 SPF) Compression mode : Lossy Stream size : 34.8 MiB (16%) Title : English: 5.1 Surround (E-AC3 640Kbps) Writing library : opusenc from opus-tools 0.2-20-gae5d6d5 Language : English Default : Yes Forced : No Comment : Processed by SoX ENCODER_OPTIONS : --bitrate 192 --comp 10 --framesize 20 --expect-loss 0 --max-delay 1000 Text ID : 3 Format : ASS Codec ID : S_TEXT/ASS Codec ID/Info : Advanced Sub Station Alpha Duration : 23 min 55 s Bit rate : 81 b/s Count of elements : 274 Compression mode : Lossless Stream size : 14.3 KiB (0%) Language : English Default : Yes Forced : No Menu 00:00:00.000 : en:Opening 00:01:30.590 : en:Part A 00:11:02.537 : en:Part B 00:22:07.534 : en:Ending 00:23:37.582 : en:Preview

File list

  • Blood-C
    • Blood-C S01E01 O Ye Winds of Heaven.mkv (270.1 MiB)
    • Blood-C S01E02 It`s for Thy Sake.mkv (221.9 MiB)
    • Blood-C S01E03 As for Man.mkv (205.9 MiB)
    • Blood-C S01E04 That Has Made Me Sad.mkv (287.6 MiB)
    • Blood-C S01E05 Meeting in the Way.mkv (396.6 MiB)
    • Blood-C S01E06 Dashed by Fierce Winds.mkv (277.2 MiB)
    • Blood-C S01E07 As Pitiless as the Storm.mkv (255.8 MiB)
    • Blood-C S01E08 Within the World.mkv (241.2 MiB)
    • Blood-C S01E09 Against my Wish.mkv (325.3 MiB)
    • Blood-C S01E10 Since `Tis by Its Breath.mkv (329.3 MiB)
    • Blood-C S01E11 Whom Then Are There Now.mkv (277.5 MiB)
    • Blood-C S01E12 If Remembering Me.mkv (311.1 MiB)
This really must look awful for a 1080p file.