[Maximus] Attack on Titan Final Season - 07 [1080p x265 Dual Audio AAC]

Category:
Date:
2021-02-22 22:46 UTC
Submitter:
Anonymous
Seeders:
18
Information:
No information.
Leechers:
0
File size:
699.0 MiB
Completed:
135
Info hash:
6b96bc0137830ff1a09273faa6e7ef79ed0e64ec
[![Attack-on-Titan-Final-Season-07-1080p-x265-Dual-Audio-AAC-mkv-snapshot-18-17-2021-02-22-16-45-4.png](https://i.postimg.cc/8cNhj9Bk/Attack-on-Titan-Final-Season-07-1080p-x265-Dual-Audio-AAC-mkv-snapshot-18-17-2021-02-22-16-45-4.png)](https://postimg.cc/njSsWdPN) General Format : Matroska Format version : Version 4 File size : 699 MiB Duration : 24 min 22 s Overall bit rate : 4 010 kb/s Encoded date : UTC 2021-02-22 22:39:37 Writing application : mkvmerge v51.0.0 ('I Wish') 64-bit Writing library : libebml v1.4.0 + libmatroska v1.6.2 Attachments : Roboto-Medium.ttf / Roboto-MediumItalic.ttf / arial.ttf / arialbd.ttf / comic.ttf / comicbd.ttf / times.ttf / timesbd.ttf / trebuc.ttf / trebucbd.ttf / verdana.ttf / verdanab.ttf Video ID : 1 Format : HEVC Format/Info : High Efficiency Video Coding Format profile : Main 10@L5@Main Codec ID : V_MPEGH/ISO/HEVC Duration : 24 min 17 s Bit rate : 3 610 kb/s Width : 1 920 pixels Height : 1 080 pixels Display aspect ratio : 16:9 Frame rate mode : Constant Frame rate : 23.976 (24000/1001) FPS Color space : YUV Chroma subsampling : 4:2:0 Bit depth : 10 bits Bits/(Pixel*Frame) : 0.073 Stream size : 627 MiB (90%) Writing library : x265 3.4+70-90fa80a85:[DJATOM's Mod][Windows][GCC 10.2.1][64 bit] 10bit Encoding settings : cpuid=1111039 / frame-threads=1 / numa-pools=24 / wpp / no-pmode / no-pme / no-psnr / no-ssim / log-level=2 / input-csp=1 / input-res=1920x1080 / interlace=0 / total-frames=34934 / level-idc=0 / high-tier=1 / uhd-bd=0 / ref=6 / no-allow-non-conformance / no-repeat-headers / annexb / no-aud / no-hrd / info / hash=0 / no-temporal-layers / open-gop / min-keyint=23 / keyint=250 / gop-lookahead=0 / bframes=8 / b-adapt=2 / b-pyramid / bframe-bias=0 / rc-lookahead=80 / lookahead-slices=6 / scenecut=40 / hist-scenecut=0 / radl=0 / no-splice / no-intra-refresh / ctu=64 / min-cu-size=8 / rect / no-amp / max-tu-size=32 / tu-inter-depth=1 / tu-intra-depth=1 / limit-tu=0 / rdoq-level=2 / dynamic-rd=0.00 / no-ssim-rd / signhide / no-tskip / nr-intra=0 / nr-inter=0 / constrained-intra / strong-intra-smoothing / max-merge=3 / limit-refs=3 / limit-modes / me=3 / subme=3 / merange=57 / temporal-mvp / no-frame-dup / no-hme / weightp / no-weightb / no-analyze-src-pics / deblock=0:0 / sao / no-sao-non-deblock / rd=4 / selective-sao=4 / no-early-skip / no-rskip / no-fast-intra / no-tskip-fast / no-cu-lossless / no-b-intra / no-splitrd-skip / rdpenalty=0 / psy-rd=1.00 / psy-rdoq=1.00 / no-rd-refine / no-lossless / cbqpoffs=0 / crqpoffs=0 / rc=crf / crf=19.0 / qcomp=0.60 / qpstep=4 / stats-write=0 / stats-read=0 / ipratio=1.40 / pbratio=1.30 / aq-mode=3 / aq-strength=1.00 / cutree / zone-count=0 / no-strict-cbr / qg-size=32 / no-rc-grain / qpmax=69 / qpmin=0 / no-const-vbv / sar=0 / overscan=0 / videoformat=5 / range=0 / colorprim=2 / transfer=2 / colormatrix=2 / chromaloc=0 / display-window=0 / cll=0,0 / min-luma=0 / max-luma=1023 / log2-max-poc-lsb=8 / vui-timing-info / vui-hrd-info / slices=1 / no-opt-qp-pps / no-opt-ref-list-length-pps / no-multi-pass-opt-rps / scenecut-bias=0.05 / hist-threshold=0.01 / no-opt-cu-delta-qp / no-aq-motion / no-hdr10 / no-hdr10-opt / no-dhdr10-opt / no-idr-recovery-sei / analysis-reuse-level=0 / analysis-save-reuse-level=0 / analysis-load-reuse-level=0 / scale-factor=0 / refine-intra=0 / refine-inter=0 / refine-mv=1 / refine-ctu-distortion=0 / limit-sao / ctu-info=0 / no-lowpass-dct / refine-analysis-type=0 / copy-pic=1 / max-ausize-factor=1.0 / no-dynamic-refine / no-single-sei / no-hevc-aq / no-svt / no-field / qp-adaptation-range=1.00 / no-scenecut-aware-qpconformance-window-offsets / right=0 / bottom=0 / decoder-max-rate=0 / no-vbv-live-multi-pass Default : Yes Forced : No Audio #1 ID : 2 Format : AAC LC Format/Info : Advanced Audio Codec Low Complexity Codec ID : A_AAC-2 Duration : 24 min 17 s Bit rate : 253 kb/s Channel(s) : 2 channels Channel layout : L R Sampling rate : 48.0 kHz Frame rate : 46.875 FPS (1024 SPF) Compression mode : Lossy Stream size : 44.0 MiB (6%) Language : English Default : Yes Forced : No Audio #2 ID : 4 Format : AAC LC Format/Info : Advanced Audio Codec Low Complexity Codec ID : A_AAC-2 Duration : 23 min 55 s Bit rate : 128 kb/s Channel(s) : 2 channels Channel layout : L R Sampling rate : 44.1 kHz Frame rate : 43.066 FPS (1024 SPF) Compression mode : Lossy Delay relative to video : 22 s 0 ms Stream size : 21.9 MiB (3%) Language : Japanese Default : No Forced : No Text #1 ID : 3 Format : ASS Codec ID : S_TEXT/ASS Codec ID/Info : Advanced Sub Station Alpha Duration : 23 min 53 s Bit rate : 76 b/s Count of elements : 290 Compression mode : Lossless Stream size : 13.4 KiB (0%) Language : English Default : No Forced : No Text #2 ID : 5 Format : ASS Codec ID : S_TEXT/ASS Codec ID/Info : Advanced Sub Station Alpha Duration : 23 min 59 s Bit rate : 61 b/s Count of elements : 212 Compression mode : Lossless Stream size : 10.8 KiB (0%) Title : English [SubsPlease] Language : English Default : No Forced : No

File list

  • Attack on Titan Final Season - 07 [1080p x265 Dual Audio AAC].mkv (699.0 MiB)