My.Hero.Academia.S04.P2.CRF-16.1080p.Blu-Ray.10-Bit.Dual-Audio.TrueHD.x265-iAHD

Category:
Date:
2021-02-20 20:31 UTC
Submitter:
Seeders:
6
Information:
No information.
Leechers:
2
File size:
30.2 GiB
Completed:
219
Info hash:
f60f7f182ed92d49a56f07bde918645834e2187f
NOTE: Optional version with CRF set to 16 to keep things consistent in the library. Other Release with CRF set to 18 go here https://nyaa.si/view/1345849 Video ID : 1 Format : HEVC Format/Info : High Efficiency Video Coding Format profile : Main 10@L5@Main Codec ID : V_MPEGH/ISO/HEVC Duration : 23 min 52 s Bit rate : 12.5 Mb/s Width : 1 920 pixels Height : 1 080 pixels Display aspect ratio : 16:9 Frame rate mode : Constant Frame rate : 23.976 (24000/1001) FPS Color space : YUV Chroma subsampling : 4:2:0 Bit depth : 10 bits Bits/(Pixel*Frame) : 0.251 Stream size : 2.08 GiB (82%) Writing library : x265 3.2.1+1-b5c86a64bbbe:[Windows][GCC 9.2.0][64 bit] 10bit Encoding settings : cpuid=1111039 / frame-threads=4 / numa-pools=16 / wpp / no-pmode / no-pme / no-psnr / no-ssim / log-level=2 / input-csp=1 / input-res=1920x1080 / interlace=0 / total-frames=0 / level-idc=0 / high-tier=1 / uhd-bd=0 / ref=6 / no-allow-non-conformance / no-repeat-headers / annexb / no-aud / no-hrd / info / hash=0 / no-temporal-layers / open-gop / min-keyint=24 / keyint=240 / gop-lookahead=0 / bframes=16 / b-adapt=2 / b-pyramid / bframe-bias=0 / rc-lookahead=50 / lookahead-slices=4 / scenecut=40 / radl=0 / no-splice / no-intra-refresh / ctu=32 / min-cu-size=8 / no-rect / no-amp / max-tu-size=32 / tu-inter-depth=1 / tu-intra-depth=3 / limit-tu=0 / rdoq-level=2 / dynamic-rd=0.00 / no-ssim-rd / signhide / tskip / nr-intra=0 / nr-inter=0 / no-constrained-intra / no-strong-intra-smoothing / max-merge=3 / limit-refs=3 / limit-modes / me=3 / subme=3 / merange=57 / temporal-mvp / no-hme / weightp / no-weightb / no-analyze-src-pics / deblock=1:1 / no-sao / no-sao-non-deblock / rd=4 / selective-sao=0 / no-early-skip / rskip / no-fast-intra / tskip-fast / no-cu-lossless / no-b-intra / no-splitrd-skip / rdpenalty=0 / psy-rd=0.80 / psy-rdoq=2.00 / no-rd-refine / no-lossless / cbqpoffs=0 / crqpoffs=0 / rc=crf / crf=16.0 / qcomp=0.60 / qpstep=4 / stats-write=0 / stats-read=0 / ipratio=1.40 / pbratio=1.30 / aq-mode=3 / aq-strength=1.25 / cutree / zone-count=0 / no-strict-cbr / qg-size=32 / no-rc-grain / qpmax=69 / qpmin=0 / no-const-vbv / sar=1 / overscan=0 / videoformat=5 / range=0 / colorprim=1 / transfer=1 / colormatrix=1 / chromaloc=0 / display-window=0 / cll=0,0 / min-luma=0 / max-luma=1023 / log2-max-poc-lsb=8 / vui-timing-info / vui-hrd-info / slices=1 / no-opt-qp-pps / no-opt-ref-list-length-pps / no-multi-pass-opt-rps / scenecut-bias=0.05 / no-opt-cu-delta-qp / no-aq-motion / no-hdr / no-hdr-opt / no-dhdr10-opt / no-idr-recovery-sei / analysis-reuse-level=5 / scale-factor=0 / refine-intra=0 / refine-inter=0 / refine-mv=1 / refine-ctu-distortion=0 / no-limit-sao / ctu-info=0 / no-lowpass-dct / refine-analysis-type=0 / copy-pic=1 / max-ausize-factor=1.0 / no-dynamic-refine / no-single-sei / no-hevc-aq / no-svt / no-field / qp-adaptation-range=1.00 Language : English Default : Yes Forced : No Color range : Limited Color primaries : BT.709 Transfer characteristics : BT.709 Matrix coefficients : BT.709 Audio #1 ID : 2 Format : MLP FBA Format/Info : Meridian Lossless Packing FBA Commercial name : Dolby TrueHD Codec ID : A_TRUEHD Duration : 23 min 52 s Bit rate mode : Variable Bit rate : 1 545 kb/s Maximum bit rate : 2 652 kb/s Channel(s) : 6 channels Channel layout : L R C LFE Ls Rs Sampling rate : 48.0 kHz Frame rate : 1 200.000 FPS (40 SPF) Compression mode : Lossless Stream size : 264 MiB (10%) Language : English Default : Yes Forced : No Audio #2 ID : 3 Format : MLP FBA Format/Info : Meridian Lossless Packing FBA Commercial name : Dolby TrueHD Codec ID : A_TRUEHD Duration : 23 min 52 s Bit rate mode : Variable Bit rate : 1 112 kb/s Maximum bit rate : 1 575 kb/s Channel(s) : 2 channels Channel layout : L R Sampling rate : 48.0 kHz Frame rate : 1 200.000 FPS (40 SPF) Compression mode : Lossless Stream size : 190 MiB (7%) Language : Japanese Default : No Forced : No Text #1 ID : 4 Format : PGS Muxing mode : zlib Codec ID : S_HDMV/PGS Codec ID/Info : Picture based subtitle format used on BDs/HD-DVDs Duration : 22 min 31 s Bit rate : 4 912 b/s Count of elements : 61 Stream size : 811 KiB (0%) Title : Signs / Songs Language : English Default : Yes Forced : No Text #2 ID : 5 Format : PGS Muxing mode : zlib Codec ID : S_HDMV/PGS Codec ID/Info : Picture based subtitle format used on BDs/HD-DVDs Duration : 23 min 46 s Bit rate : 48.1 kb/s Count of elements : 669 Stream size : 8.18 MiB (0%) Title : Dialogue Language : English Default : No Forced : No Menu 00:00:00.000 : en:Chapter 01 00:01:18.996 : en:Chapter 02 00:02:49.044 : en:Chapter 03 00:14:14.103 : en:Chapter 04 00:21:50.935 : en:Chapter 05 00:23:20.983 : en:Chapter 06

File list

  • My.Hero.Academia.S04.P2.CRF-16.1080p.Blu-Ray.10-Bit.Dual-Audio.TrueHD.x265-iAHD
    • My.Hero.Academia.S04E14.1080p.Blu-Ray.10-Bit.Dual-Audio.TrueHD.x265-iAHD.mkv (2.6 GiB)
    • My.Hero.Academia.S04E15.1080p.Blu-Ray.10-Bit.Dual-Audio.TrueHD.x265-iAHD.mkv (2.4 GiB)
    • My.Hero.Academia.S04E16.1080p.Blu-Ray.10-Bit.Dual-Audio.TrueHD.x265-iAHD.mkv (2.5 GiB)
    • My.Hero.Academia.S04E17.1080p.Blu-Ray.10-Bit.Dual-Audio.TrueHD.x265-iAHD.mkv (2.4 GiB)
    • My.Hero.Academia.S04E18.1080p.Blu-Ray.10-Bit.Dual-Audio.TrueHD.x265-iAHD.mkv (2.4 GiB)
    • My.Hero.Academia.S04E19.1080p.Blu-Ray.10-Bit.Dual-Audio.TrueHD.x265-iAHD.mkv (2.5 GiB)
    • My.Hero.Academia.S04E20.1080p.Blu-Ray.10-Bit.Dual-Audio.TrueHD.x265-iAHD.mkv (2.3 GiB)
    • My.Hero.Academia.S04E21.1080p.Blu-Ray.10-Bit.Dual-Audio.TrueHD.x265-iAHD.mkv (2.5 GiB)
    • My.Hero.Academia.S04E22.1080p.Blu-Ray.10-Bit.Dual-Audio.TrueHD.x265-iAHD.mkv (2.7 GiB)
    • My.Hero.Academia.S04E23.1080p.Blu-Ray.10-Bit.Dual-Audio.TrueHD.x265-iAHD.mkv (2.6 GiB)
    • My.Hero.Academia.S04E24.1080p.Blu-Ray.10-Bit.Dual-Audio.TrueHD.x265-iAHD.mkv (2.4 GiB)
    • My.Hero.Academia.S04E25.1080p.Blu-Ray.10-Bit.Dual-Audio.TrueHD.x265-iAHD.mkv (2.8 GiB)
Whatever you do, please NEVER edit the video in any way, any shape, or any form. Do not become that faggot Moozi. PLEASE use the same settings for every rip you do even if files are bigger than normal. Consistency is key, and it's why you're the best (along with not editing videos with any filter). Thank you for your work and all that you do. You are my favorite uploader on Nyaa. You are appreciated. =)
Appreciate this upload and the time you put into it, having it consistent even with larger file sizes is worth it when the rest of the library has the same standard. Keep it up. You do this for your own library at the end of the day, so we are just fortunate enough to even get it! Looking forward to more Black Clover and other releases from you. Thanks.
Ah, someone with the same level of OCD as me.
@NobodysLoveMalus oh look at me i hate Moozi i'm special
It's finally here, wooo! Thanks a bunch!
Thank you for all of the uploads, they're much appreciated :)
Thanks for all the uploads, this is some God Tier work
@NobodysLoveMalus Agreed, iAHD rocks, Moozi is The Joker of Nyaa. I'm beginning to think Moozi watches anime on a really old CRT without any color saturation, and believes, well...all the world's anime is just undersaturated.
@FortressMaximus I disagree, iAHD is definitely better, but some of Moozi's releases are one of a kind such as Railgun T release
When I play any of IAHQ's video's on KMPlayer 64X, and try to change the height or color of the subtitles (which you can normally do), It won't change at all. And with video's from different submitters, that works fine. Is this just me? Can you do something abouth it?

iAHQ (uploader)

User
@Antimoon all my encodes used "PGS" Picture based subtitle format used on BDs/HD-DVDs so you are not able to change font or sizes.
There are few seconds of the audio missing at the end of the last episode in both eng and jpn. Can someone else confirm this?
@leorio1009 Even the WebRips had it, so I think it's a part of that scene of the episode.
@J363 I just checked the web audio and it had the missing part. I'm talking about the scene just before season 5 announcement at the end, at around 23:05. Maybe the problem is from my end, so I would like others to check.
@leorio1009 I checked again, and this download did have audio at that part. I had to increase the volume to hear it (same for the webrips). So it's there.
Absolutely love the 2gb per episode. thanks!