Digimon Tamers (2001) - The Remastered Cut - Stereophonic Edition - Vol. 2 (1080p HEVC FLAC 2.0) [Velo-BFT]

Category:
Date:
2021-02-14 16:31 UTC
Submitter:
Seeders:
1
Information:
Leechers:
2
File size:
6.2 GiB
Completed:
130
Info hash:
823283fa977c323b86c2252a26d6ecf1e43e75d8
![img](https://i.imgur.com/hrtFLIT.jpg) ![img](https://i.imgur.com/VRqFR5U.jpg) ![img](https://i.imgur.com/XKM7x48.jpg) Happy Valentine's Day! Here's the second volume of *Digimon Tamers* in glorious, full HD resolution with FLAC stereophonic audio. The first and second volume will be released in a 5.1 AC3 audio version later, so look forward to that if you have a 5.1 or 7.1/Dolby Atmos sound system. **MediaInfo (episode 7):** ``` General Unique ID : 210612746474522289877086380058420406286 (0x9E728A1D5C0EDE1CF370ACFFB807680E) Complete name : D:\VBFT\Digimon Tamers (2001) - S01E07 - Now You See It, Now You Don't (1080p HEVC FLAC 2.0) [Velo-BFT] [BB8E0E96].mkv Format : Matroska Format version : Version 4 File size : 760 MiB Duration : 20 min 30 s Overall bit rate mode : Variable Overall bit rate : 5 183 kb/s Movie name : Digimon Tamers (2001) - S01E07 - Now You See It, Now You Don't (1080p HEVC FLAC 2.0) [Velo-BFT] Encoded date : UTC 2021-02-14 12:57:03 Writing application : mkvmerge v53.0.0 ('Fool's Gold') 64-bit Writing library : libebml v1.4.1 + libmatroska v1.6.2 Attachments : ClearSans-Bold_0_0.ttf / ClearSans-BoldItalic_0_0.ttf / ClearSans-Italic_0_0.ttf / ClearSans-Light_0_0.ttf / ClearSans-Medium_0_0.ttf / ClearSans-MediumItalic_0_0.ttf / ClearSans-Regular_0_0.ttf / ClearSans-Thin_0_0.ttf Encoding Gui : Hybrid 2020.10.11.1 Video ID : 1 Format : HEVC Format/Info : High Efficiency Video Coding Format profile : Main 10@L4@Main Codec ID : V_MPEGH/ISO/HEVC Duration : 20 min 30 s Bit rate : 4 325 kb/s Width : 1 436 pixels Height : 1 080 pixels Display aspect ratio : 4:3 Frame rate mode : Constant Frame rate : 29.970 (30000/1001) FPS Color space : YUV Chroma subsampling : 4:2:0 Bit depth : 10 bits Bits/(Pixel*Frame) : 0.093 Stream size : 635 MiB (83%) Title : 10-bit FHD video by BFT Writing library : x265 3.4+26-ga82c6c7a7:[Windows][GCC 10.2.0][64 bit] 10bit Encoding settings : cpuid=1049583 / frame-threads=3 / numa-pools=8 / wpp / no-pmode / no-pme / no-psnr / no-ssim / log-level=2 / input-csp=1 / input-res=1436x1080 / interlace=0 / total-frames=0 / level-idc=0 / high-tier=1 / uhd-bd=0 / ref=3 / no-allow-non-conformance / no-repeat-headers / annexb / no-aud / no-hrd / info / hash=0 / no-temporal-layers / no-open-gop / min-keyint=25 / keyint=250 / gop-lookahead=0 / bframes=3 / b-adapt=2 / b-pyramid / bframe-bias=0 / rc-lookahead=20 / lookahead-slices=0 / scenecut=40 / hist-scenecut=0 / radl=0 / no-splice / no-intra-refresh / ctu=64 / min-cu-size=8 / no-rect / no-amp / max-tu-size=32 / tu-inter-depth=1 / tu-intra-depth=1 / limit-tu=0 / rdoq-level=2 / dynamic-rd=0.00 / ssim-rd / signhide / no-tskip / nr-intra=0 / nr-inter=0 / no-constrained-intra / strong-intra-smoothing / max-merge=3 / limit-refs=0 / limit-modes / me=1 / subme=2 / merange=57 / temporal-mvp / no-frame-dup / no-hme / weightp / no-weightb / no-analyze-src-pics / deblock=-1:-1 / no-sao / no-sao-non-deblock / rd=3 / selective-sao=0 / no-early-skip / rskip / no-fast-intra / no-tskip-fast / no-cu-lossless / b-intra / no-splitrd-skip / rdpenalty=0 / psy-rd=2.50 / psy-rdoq=10.00 / no-rd-refine / no-lossless / cbqpoffs=-2 / crqpoffs=-2 / rc=crf / crf=12.0 / qcomp=0.60 / qpstep=4 / stats-write=0 / stats-read=0 / ipratio=1.40 / pbratio=1.30 / aq-mode=1 / aq-strength=0.00 / cutree / zone-count=0 / no-strict-cbr / qg-size=32 / no-rc-grain / qpmax=69 / qpmin=0 / no-const-vbv / sar=0 / overscan=0 / videoformat=5 / range=0 / colorprim=2 / transfer=2 / colormatrix=1 / chromaloc=0 / display-window=0 / cll=0,0 / min-luma=0 / max-luma=1023 / log2-max-poc-lsb=8 / vui-timing-info / vui-hrd-info / slices=1 / opt-qp-pps / opt-ref-list-length-pps / no-multi-pass-opt-rps / scenecut-bias=0.05 / hist-threshold=0.03 / no-opt-cu-delta-qp / no-aq-motion / no-hdr10 / no-hdr10-opt / no-dhdr10-opt / no-idr-recovery-sei / analysis-reuse-level=0 / analysis-save-reuse-level=0 / analysis-load-reuse-level=0 / scale-factor=0 / refine-intra=0 / refine-inter=0 / refine-mv=1 / refine-ctu-distortion=0 / no-limit-sao / ctu-info=0 / no-lowpass-dct / refine-analysis-type=0 / copy-pic=1 / max-ausize-factor=1.0 / no-dynamic-refine / no-single-sei / no-hevc-aq / no-svt / no-field / qp-adaptation-range=1.00 / no-scenecut-aware-qpconformance-window-offsets / right=0 / bottom=0 / decoder-max-rate=0 / no-vbv-live-multi-pass Language : English Default : Yes Forced : Yes Color range : Limited Matrix coefficients : BT.709 Audio ID : 2 Format : FLAC Format/Info : Free Lossless Audio Codec Codec ID : A_FLAC Duration : 20 min 30 s Bit rate mode : Variable Bit rate : 818 kb/s Channel(s) : 2 channels Channel layout : L R Sampling rate : 48.0 kHz Frame rate : 10.417 FPS (4608 SPF) Bit depth : 16 bits Compression mode : Lossless Stream size : 120 MiB (16%) Title : English FLAC Stereo Writing library : Lavf58.56.100 Language : English Default : Yes Forced : No Text #1 ID : 3 Format : ASS Codec ID : S_TEXT/ASS Codec ID/Info : Advanced Sub Station Alpha Duration : 19 min 57 s Bit rate : 172 b/s Count of elements : 488 Compression mode : Lossless Stream size : 25.3 KiB (0%) Title : Dubtitles by Velocifaptor (ASS) Language : English Default : Yes Forced : No Text #2 ID : 4 Format : PGS Muxing mode : zlib Codec ID : S_HDMV/PGS Codec ID/Info : Picture based subtitle format used on BDs/HD-DVDs Duration : 19 min 59 s Bit rate : 58.1 kb/s Count of elements : 566 Stream size : 8.31 MiB (1%) Title : Dubtitles by Velocifaptor (PGS) Language : English Default : No Forced : No Menu 00:00:00.000 : en:Opening 00:01:01.580 : en:Episode 00:19:59.480 : en:Ending ``` **Screenshots:** This release is identical in quality to the supercut. For screenshots from the supercut, refer to my supercut torrent. **Episodes included:** Episode 7 - Now You See It, Now You Don't Episode 8 - A Question Of Trust Episode 9 - Not As Seen On TV Episode 10 - The Icemon Cometh Episode 11 - Much Ado About Musyamon Episode 12 - Divided They Stand Episode 13 - Juggernaut *For more DigiTastic content, join our Telegram channel:* http://t.me/veloencodesreleases It’s a new year, and all I ask is that you support me with your kind words of encouragement and continued downloads of my releases. You too, should aim to be a Tamer!

File list

  • Digimon Tamers (2001) - The Remastered Cut - Stereophonic Edition - Vol. 2 (1080p HEVC FLAC 2.0) [Velo-BFT]
    • DIgimon Tamers (2001) - S01E12 - Divided They Stand (1080p HEVC FLAC 2.0) [Velo-BFT] [62DA0296].mkv (971.3 MiB)
    • Digimon Tamers (2001) - S01E07 - Now You See It, Now You Don't (1080p HEVC FLAC 2.0) [Velo-BFT] [BB8E0E96].mkv (760.5 MiB)
    • Digimon Tamers (2001) - S01E08 - A Question of Trust (1080p HEVC FLAC 2.0) [Velo-BFT] [4EF36D53].mkv (948.2 MiB)
    • Digimon Tamers (2001) - S01E09 - Not As Seen On TV (1080p HEVC FLAC 2.0) [Velo-BFT] [54A73287].mkv (904.1 MiB)
    • Digimon Tamers (2001) - S01E10 - The Icemon Cometh (1080p HEVC FLAC 2.0) [Velo-BFT] [5F55349B].mkv (1005.4 MiB)
    • Digimon Tamers (2001) - S01E11 - Much Ado About Musyamon (1080p HEVC FLAC 2.0) [Velo-BFT] [AFB98A82].mkv (1.1 GiB)
    • Digimon Tamers (2001) - S01E13 - Juggernaut (1080p HEVC FLAC 2.0) [Velo-BFT] [1803DC52].mkv (653.3 MiB)

thecharioteermode (uploader)

User
Sorry for the delay, you guys. I know it's still technically Valentine's Day, especially in most time zones outside where I am currently, but I promised to release this BEFORE V-Day. Nevertheless, I am sorry for the delays. I'll be mirroring this torrent to ETTV and elsewhere tomorrow. I'll also be updating the Pastebin with filenames for those of you who are using legacy scrapers such as IMDb with Kodi TOMORROW, as I am too burned out to do anything else tonight. If you guys find any glaring mistakes with the release, don't be afraid to point them out in the comments here. Thanks for all the love and support! EDIT: I would also like to point out that I am taking a break from Tamers after the release of this torrent. I'll be focusing on finishing up and releasing Digimon Adventure Zero Two's last set as well as a batch torrent for the same, and although I'll still be working on the second supercut for Tamers with BFT, I (or rather, we) don't have any ETA currently on the same.
Just curious but are these releases not going to include the original OP/ED? Need those Wada Kouji nostalgia...

thecharioteermode (uploader)

User
@booyah, not the individual episodes, but if that Wada Kouji nostalgia is what you're after, consider grabbing the supercuts. I know, it's impractical to stream them via Plex, but they have meticulously added Matroska chapters, so that you can skip to any part if you've already watched what comes before it. I know, it would have been super amazing for us to do a dual-audio release, but BFT and I kept hitting major snags with that. Perhaps I'll give it another go later (though I can't promise anything), but ONLY after we've finished releasing the series in the dubbed-over-raw format we're currently doing.
With the Tamers anniversary in full swing, I hope we are lucky enough to see one more release before the end of the calendar year.