[Maximus] Puella Magi Madoka☆Magica (2011) [BluRay 1080p x265 10bit Dual Audio AC3]

Category:
Date:
2021-02-13 19:07 UTC
Submitter:
Anonymous
Seeders:
14
Information:
No information.
Leechers:
3
File size:
8.3 GiB
Completed:
178
Info hash:
7c7299c7ce5ead73bddf45b20edd377e43676cf4
[![S01-E01-As-If-I-Met-Her-in-My-Dream-mkv-snapshot-21-22-2021-02-13-11-48-19.png](https://i.postimg.cc/pT6PLt0k/S01-E01-As-If-I-Met-Her-in-My-Dream-mkv-snapshot-21-22-2021-02-13-11-48-19.png)](https://postimg.cc/hzTk2NR7) [![S01-E06-This-Just-Isn-t-Right-mkv-snapshot-12-19-2021-02-13-11-50-29.png](https://i.postimg.cc/Df4S4Cqm/S01-E06-This-Just-Isn-t-Right-mkv-snapshot-12-19-2021-02-13-11-50-29.png)](https://postimg.cc/pyxWgJct) [![S01-E12-My-Best-Friend-mkv-snapshot-16-21-2021-02-13-11-52-38.png](https://i.postimg.cc/sDFvYpcm/S01-E12-My-Best-Friend-mkv-snapshot-16-21-2021-02-13-11-52-38.png)](https://postimg.cc/LhT9RgGg) General Format : Matroska Format version : Version 4 File size : 743 MiB Duration : 25 min 42 s Overall bit rate : 4 042 kb/s Encoded date : UTC 2021-02-11 20:44:04 Writing application : mkvmerge v52.0.0 ('Secret For The Mad') 64-bit Writing library : libebml v1.4.1 + libmatroska v1.6.2 Attachments : Ameretto-Condensed Bold.ttf / Ameretto-Condensed Normal.ttf / ARIALUNI.ttf / Arial-Unicode-Bold.ttf / DFGKB-MadokaTitleS.ttf / DFGMinchoP-W5-En.ttf / DFJinWenW3-B5華康金文繁.ttc / dfmrg7.ttc / DFPGothW5-Madoka.ttf / DFPMinUB-Madoka.ttf / DFPPop-En.ttf / DFPSHT-W5-Madoka.ttf / ExtraOrnamentalNo2.ttf / FOT-HummingStdEn-B.otf / G-OTF-GJun34Pro-Medium_0.otf / imposs_accents.ttf / IwaGNewsProDb-Madoka.ttf / KozGoProH-Madoka.ttf / Mixage_Bk_BT_Bold.ttf / Mixage_Bk_BT_Bold_Italic.ttf / mona.ttf / Sansation_Regular.ttf / THROW MY HANDS UP IN THE AIR.ttf / ufonts.com_doradani-rg.ttf / VDLogoMaru-Ultra-P-Madoka.ttf / 方正准圆_GBK.ttf / 方正粗圆简体.ttf / 日文毛笔行书.ttf / 长城粗圆体.ttf Video ID : 1 Format : HEVC Format/Info : High Efficiency Video Coding Format profile : Main 10@L5@Main Codec ID : V_MPEGH/ISO/HEVC Duration : 25 min 42 s Bit rate : 3 095 kb/s Width : 1 920 pixels Height : 1 080 pixels Display aspect ratio : 16:9 Frame rate mode : Constant Frame rate : 23.976 (24000/1001) FPS Color space : YUV Chroma subsampling : 4:2:0 Bit depth : 10 bits Bits/(Pixel*Frame) : 0.062 Stream size : 569 MiB (77%) Writing library : x265 3.4+70-90fa80a85:[DJATOM's Mod][Windows][GCC 10.2.1][64 bit] 10bit Encoding settings : cpuid=1111039 / frame-threads=1 / numa-pools=24 / wpp / no-pmode / no-pme / no-psnr / no-ssim / log-level=2 / input-csp=1 / input-res=1920x1080 / interlace=0 / total-frames=36975 / level-idc=0 / high-tier=1 / uhd-bd=0 / ref=6 / no-allow-non-conformance / no-repeat-headers / annexb / no-aud / no-hrd / info / hash=0 / no-temporal-layers / open-gop / min-keyint=23 / keyint=250 / gop-lookahead=0 / bframes=8 / b-adapt=2 / b-pyramid / bframe-bias=0 / rc-lookahead=80 / lookahead-slices=6 / scenecut=40 / hist-scenecut=0 / radl=0 / no-splice / no-intra-refresh / ctu=64 / min-cu-size=8 / rect / no-amp / max-tu-size=32 / tu-inter-depth=1 / tu-intra-depth=1 / limit-tu=0 / rdoq-level=2 / dynamic-rd=0.00 / no-ssim-rd / signhide / no-tskip / nr-intra=0 / nr-inter=0 / no-constrained-intra / strong-intra-smoothing / max-merge=3 / limit-refs=3 / limit-modes / me=3 / subme=3 / merange=57 / temporal-mvp / no-frame-dup / no-hme / weightp / no-weightb / no-analyze-src-pics / deblock=0:0 / sao / no-sao-non-deblock / rd=4 / selective-sao=4 / no-early-skip / no-rskip / no-fast-intra / no-tskip-fast / no-cu-lossless / no-b-intra / no-splitrd-skip / rdpenalty=0 / psy-rd=1.50 / psy-rdoq=2.00 / no-rd-refine / no-lossless / cbqpoffs=0 / crqpoffs=0 / rc=crf / crf=19.0 / qcomp=0.60 / qpstep=4 / stats-write=0 / stats-read=0 / ipratio=1.40 / pbratio=1.30 / aq-mode=3 / aq-strength=1.00 / cutree / zone-count=0 / no-strict-cbr / qg-size=32 / no-rc-grain / qpmax=69 / qpmin=0 / no-const-vbv / sar=0 / overscan=0 / videoformat=5 / range=0 / colorprim=2 / transfer=2 / colormatrix=2 / chromaloc=0 / display-window=0 / cll=0,0 / min-luma=0 / max-luma=1023 / log2-max-poc-lsb=8 / vui-timing-info / vui-hrd-info / slices=1 / no-opt-qp-pps / no-opt-ref-list-length-pps / no-multi-pass-opt-rps / scenecut-bias=0.05 / hist-threshold=0.01 / no-opt-cu-delta-qp / no-aq-motion / no-hdr10 / no-hdr10-opt / no-dhdr10-opt / no-idr-recovery-sei / analysis-reuse-level=0 / analysis-save-reuse-level=0 / analysis-load-reuse-level=0 / scale-factor=0 / refine-intra=0 / refine-inter=0 / refine-mv=1 / refine-ctu-distortion=0 / limit-sao / ctu-info=0 / no-lowpass-dct / refine-analysis-type=0 / copy-pic=1 / max-ausize-factor=1.0 / no-dynamic-refine / no-single-sei / no-hevc-aq / no-svt / no-field / qp-adaptation-range=1.00 / no-scenecut-aware-qpconformance-window-offsets / right=0 / bottom=0 / decoder-max-rate=0 / no-vbv-live-multi-pass Default : Yes Forced : No Audio #1 ID : 2 Format : AC-3 Format/Info : Audio Coding 3 Commercial name : Dolby Digital Codec ID : A_AC3 Duration : 25 min 41 s Bit rate mode : Constant Bit rate : 224 kb/s Channel(s) : 2 channels Channel layout : L R Sampling rate : 48.0 kHz Frame rate : 31.250 FPS (1536 SPF) Compression mode : Lossy Delay relative to video : 1 s 39 ms Stream size : 41.2 MiB (6%) Language : English Service kind : Complete Main Default : Yes Forced : No Audio #2 ID : 3 Format : AC-3 Format/Info : Audio Coding 3 Commercial name : Dolby Digital Codec ID : A_AC3 Duration : 25 min 42 s Bit rate mode : Constant Bit rate : 224 kb/s Channel(s) : 2 channels Channel layout : L R Sampling rate : 48.0 kHz Frame rate : 31.250 FPS (1536 SPF) Compression mode : Lossy Stream size : 41.2 MiB (6%) Language : Japanese Service kind : Complete Main Default : No Forced : No Text #1 ID : 4 Format : ASS Codec ID : S_TEXT/ASS Codec ID/Info : Advanced Sub Station Alpha Duration : 25 min 38 s Bit rate : 968 b/s Count of elements : 889 Compression mode : Lossless Stream size : 182 KiB (0%) Title : [Meguca] Subs Language : English Default : No Forced : No Text #2 ID : 5 Format : ASS Codec ID : S_TEXT/ASS Codec ID/Info : Advanced Sub Station Alpha Duration : 25 min 38 s Bit rate : 662 b/s Count of elements : 197 Compression mode : Lossless Stream size : 124 KiB (0%) Title : [Meguca/Raizel] Signs/OP/ED Language : English Default : Yes Forced : No Menu 00:00:00.000 : en:Prologue 00:02:58.052 : en:Opening 00:04:28.017 : en:Part A 00:14:39.795 : en:Part B 00:23:56.059 : en:Ending 00:25:26.149 : en:Preview

File list

  • Puella Magi Madoka☆Magica
    • S01E01 - As If I Met Her in My Dream....mkv (743.2 MiB)
    • S01E02 - That Would Be Really Nice.mkv (641.7 MiB)
    • S01E03 - I`m Not Afraid Anymore.mkv (657.0 MiB)
    • S01E04 - There Are Miracles and Magic.mkv (701.2 MiB)
    • S01E05 - There`s No Way I Would Regret It.mkv (692.2 MiB)
    • S01E06 - This Just Isn`t Right.mkv (562.1 MiB)
    • S01E07 - Can I Face My True Feelings.mkv (714.6 MiB)
    • S01E08 - I`m Such a Fool.mkv (723.3 MiB)
    • S01E09 - I Can`t Forgive That Kind of Thing.mkv (753.0 MiB)
    • S01E10 - I Can`t Depend on Anyone Anymore.mkv (680.5 MiB)
    • S01E11 - The Final Sign Left.mkv (1.0 GiB)
    • S01E12 - My Best Friend.mkv (655.8 MiB)