[neoHEVC] Paradise Kiss [720p x265 HEVC AAC] [Dual Audio]

Category:
Date:
2021-02-02 13:15 UTC
Submitter:
Seeders:
9
Information:
Leechers:
1
File size:
3.2 GiB
Completed:
357
Info hash:
43f7b1da4ca756aa8238d07ad1e49eade272a174
![](https://i.imgur.com/RBlGp48.png) *Join **[Discord](https://discord.gg/KYKYZUh)** for Current Projects, Encode-Requests and Seed-Request in case of no available seeds.* **Paradise Kiss** *with `Dual Audio (Jpn/Eng)` and `Eng Subs` in `720p HEVC`* Reencode of [Beatrice-Raws] (x265 HEVC FLAC) to (x265 HEVC AAC) with added English subtitles from [Niizk] and English audio tracks from [Patjantess]. *Side Note: I created additional [Signs & Songs] subtitle tracks from the [Dialog] subtitle tracks to go with the added English audio tracks and did some resizing/repositioning on the dialog subtitles.* ![](https://i.imgur.com/4iegWLL.png) **[Trailer](https://www.youtube.com/watch?v=btG48UGYVLM)** ![](https://i.imgur.com/3UxGuWB.png) ![](https://i.imgur.com/ZCtSawZ.png) **[MyAnimeList](https://myanimelist.net/anime/322/Paradise_Kiss)** --- **Synopsis** On her way home from school, Yukari Hayasaka is approached by a weird-looking guy who starts looking at her body intently. He's got blond spiky hair, a spiked choker, and multiple piercings on his ears and face. She wants nothing to do with him, and runs away, only to bump into a very tall and beautiful purple-haired woman with a flower pattern around her eye. Yukari faints from shock and wakes up later in a strange place called the Atelier. It turns out that these strangers are fashion designers who attend the most famous art school around, Yazawa Art Academy, and their group wants Yukari to model for their brand in Yazawa Academy's upcoming show. Yukari turns down their offer and escapes the Atelier, but unknowingly leaves her school ID behind. George Koizumi, the head designer, later sees it and immediately knows she would be the perfect model for them and will not stop until he gets what he wants—and he wants her. Yukari had never considered something as frivolous as modeling before, but could life among these eccentric designers actually prove to be fun? Or will Yukari lose herself in this world of art and passion? ![](https://i.imgur.com/wKX7yvD.png) --- **Comparison** *Open links, toggle with mouseclick and check title.* [![](https://i.imgur.com/BeNdNZz.png)](https://slow.pics/c/v2Cuwjai) [![](https://i.imgur.com/9HqiuVU.png)](https://slow.pics/c/PNHMFmqY) [![](https://i.imgur.com/QGxAnNK.png)](https://slow.pics/c/ujfxmxw8) --- **Language Options** I included two simple scripts that you can apply to these files to do the following (Windows only): 1. Change [Default Tracks]: Switches default tracks to *A:Japanese S:Dialog* 2. Make [Single Audio]: Throws out *English audio* and *Signs&Songs subtitles* tracks To apply these put all the video files into the *Language Options* folder and run the .bat file. <1> Changes existing files, <2> creates new ones in the *output* folder. --- **Source** ?️ Video,Jpn Audio and Subtitles: **[[Beatrice-Raws]](https://nyaa.si/view/1247534)** ?️ Eng Audio: **[[Patjantess]](https://nyaa.si/view/1149063)** ? *Subtitles Info: [Niizk] - Format `ASS`* --- **Media Info** ? [Full Mediainfo incl. Encoder Settings](https://pastebin.com/6WfMV2JQ) ``` General Unique ID : 107622172508288222856282374689912583318 (0x50F746C6D3ED7792A78E582812ECF496) Complete name : Paradise Kiss - S01E01.mkv Format : Matroska Format version : Version 4 File size : 348 MiB Duration : 22 min 31 s Overall bit rate : 2 160 kb/s Movie name : Paradise Kiss - S01E01 Encoded date : UTC 2021-02-02 12:09:45 Writing application : mkvmerge v47.0.0 ('Black Flag') 64-bit Writing library : libebml v1.3.10 + libmatroska v1.5.2 / Lavf58.29.100 Attachments : FromageCondOblique.ttf / gnuolane.ttf Video ID : 1 Format : HEVC Format/Info : High Efficiency Video Coding Format profile : Main 10@L4.1@High Codec ID : V_MPEGH/ISO/HEVC Duration : 22 min 31 s Bit rate : 1 803 kb/s Width : 1 280 pixels Height : 720 pixels Display aspect ratio : 16:9 Frame rate mode : Constant Frame rate : 23.976 (24000/1001) FPS Color space : YUV Chroma subsampling : 4:2:0 Bit depth : 10 bits Bits/(Pixel*Frame) : 0.082 Stream size : 290 MiB (83%) Writing library : x265 3.2.1+1-b5c86a64bbbe:[Windows][GCC 9.2.0][64 bit] 10bit Encoding settings : <Check Link Above> Default : Yes Forced : No Color range : Limited Color primaries : BT.709 Transfer characteristics : BT.709 Matrix coefficients : BT.709 Audio #1 ID : 2 Format : AAC LC Format/Info : Advanced Audio Codec Low Complexity Codec ID : A_AAC-2 Duration : 22 min 29 s Bit rate : 149 kb/s Channel(s) : 2 channels Channel layout : L R Sampling rate : 48.0 kHz Frame rate : 46.875 FPS (1024 SPF) Compression mode : Lossy Delay relative to video : 977 ms Stream size : 24.0 MiB (7%) Title : Stereo - ENG (AAC) Language : English Default : Yes Forced : No Audio #2 ID : 3 Format : AAC LC Format/Info : Advanced Audio Codec Low Complexity Codec ID : A_AAC-2 Duration : 22 min 31 s Bit rate : 203 kb/s Channel(s) : 2 channels Channel layout : L R Sampling rate : 48.0 kHz Frame rate : 46.875 FPS (1024 SPF) Compression mode : Lossy Delay relative to video : -43 ms Stream size : 32.7 MiB (9%) Title : Stereo - JPN (AAC) Language : Japanese Default : No Forced : No Text #1 ID : 4 Format : ASS Codec ID : S_TEXT/ASS Codec ID/Info : Advanced Sub Station Alpha Duration : 10 min 49 s Bit rate : 34 b/s Count of elements : 34 Compression mode : Lossless Stream size : 2.74 KiB (0%) Title : Signs & Songs - ENG (ASS) Language : English Default : Yes Forced : No Text #2 ID : 5 Format : ASS Codec ID : S_TEXT/ASS Codec ID/Info : Advanced Sub Station Alpha Duration : 21 min 15 s Bit rate : 150 b/s Count of elements : 360 Compression mode : Lossless Stream size : 23.4 KiB (0%) Title : Dialog - ENG (ASS) Language : English Default : No Forced : No Menu 00:00:00.000 : :Avant 00:01:34.219 : :OP 00:03:03.892 : :Part A 00:13:22.343 : :Part B 00:21:19.945 : :ED ```

File list

  • [neoHEVC] Paradise Kiss [720p x265 HEVC AAC] [Dual Audio]
    • Language Options
      • 1. Change [Default Tracks].bat (283 Bytes)
      • 2. Make [Single Audio] Japanese.bat (124 Bytes)
      • mkvmerge.exe (9.6 MiB)
      • mkvpropedit.exe (5.1 MiB)
    • Paradise Kiss - S01E01.mkv (347.9 MiB)
    • Paradise Kiss - S01E02.mkv (272.5 MiB)
    • Paradise Kiss - S01E03.mkv (262.8 MiB)
    • Paradise Kiss - S01E04.mkv (259.6 MiB)
    • Paradise Kiss - S01E05.mkv (236.3 MiB)
    • Paradise Kiss - S01E06.mkv (298.4 MiB)
    • Paradise Kiss - S01E07.mkv (256.6 MiB)
    • Paradise Kiss - S01E08.mkv (256.9 MiB)
    • Paradise Kiss - S01E09.mkv (255.8 MiB)
    • Paradise Kiss - S01E10.mkv (315.6 MiB)
    • Paradise Kiss - S01E11.mkv (288.3 MiB)
    • Paradise Kiss - S01E12.mkv (250.3 MiB)
Thanks for fulfilling my request
Thanks! Can you do more of the early Noitamina shows?
thanks so much! manga is about to be re-released here too :D
Can you please do this anime? https://myanimelist.net/anime/5040/One_Outs There's not a single 'HEVC' exist :(