[Maximus] Durarara!! S01 (2010) [BluRay 1080p x265 10bit Dual Audio AAC]

Category:
Date:
2021-01-27 15:42 UTC
Submitter:
Anonymous
Seeders:
2
Information:
No information.
Leechers:
2
File size:
11.1 GiB
Completed:
241
Info hash:
5210a79f585541b879cd4d044cf913a1f74fccdb
[![S00-E01-12-5-Heaven-s-Vengeance-mkv-snapshot-12-23-2021-01-27-00-41-55.png](https://i.postimg.cc/prKLHYdt/S00-E01-12-5-Heaven-s-Vengeance-mkv-snapshot-12-23-2021-01-27-00-41-55.png)](https://postimg.cc/q6MTcKnm) [![S01-E01-First-Words-mkv-snapshot-07-25-2021-01-26-23-48-43.png](https://i.postimg.cc/YqfCD3V6/S01-E01-First-Words-mkv-snapshot-07-25-2021-01-26-23-48-43.png)](https://postimg.cc/vcTycWGT) [![S01-E13-Takes-a-Sudden-Turn-mkv-snapshot-02-17-2021-01-26-23-49-49.png](https://i.postimg.cc/xdqjCSd5/S01-E13-Takes-a-Sudden-Turn-mkv-snapshot-02-17-2021-01-26-23-49-49.png)](https://postimg.cc/GBwn7VGT) [![S01-E24-Selfless-Devotion-mkv-snapshot-10-00-2021-01-26-23-50-09.png](https://i.postimg.cc/43MfHF7g/S01-E24-Selfless-Devotion-mkv-snapshot-10-00-2021-01-26-23-50-09.png)](https://postimg.cc/d72Pz6jH) General Format : Matroska Format version : Version 4 File size : 513 MiB Duration : 24 min 31 s Overall bit rate : 2 922 kb/s Encoded date : UTC 2021-01-21 21:44:17 Writing application : mkvmerge v47.0.0 ('Black Flag') 64-bit Writing library : libebml v1.3.10 + libmatroska v1.5.2 Attachments : AbyssEPTitleFont.ttf / arial.ttf / CALIBRI.ttf / CALIBRIB.ttf / CALIBRII.ttf / CALIBRIZ.ttf / Cartoon_Regular.ttf / edo.ttf / HandVetica.ttf / PURI10.ttf / PURIB10.ttf / PURIBI10.ttf / RuzickaTypeK.ttf Video ID : 1 Format : HEVC Format/Info : High Efficiency Video Coding Format profile : Main 10@L5@Main Codec ID : V_MPEGH/ISO/HEVC Duration : 24 min 31 s Bit rate : 2 338 kb/s Width : 1 920 pixels Height : 1 080 pixels Display aspect ratio : 16:9 Frame rate mode : Constant Frame rate : 23.976 (24000/1001) FPS Color space : YUV Chroma subsampling : 4:2:0 Bit depth : 10 bits Bits/(Pixel*Frame) : 0.047 Stream size : 410 MiB (80%) Writing library : x265 3.4+26-ga82c6c7a7:[Windows][MSVC 1927][64 bit] 10bit Encoding settings : cpuid=1111039 / frame-threads=1 / numa-pools=24 / wpp / no-pmode / no-pme / no-psnr / no-ssim / log-level=2 / input-csp=1 / input-res=1920x1080 / interlace=0 / total-frames=35277 / level-idc=0 / high-tier=1 / uhd-bd=0 / ref=6 / no-allow-non-conformance / no-repeat-headers / annexb / no-aud / no-hrd / info / hash=0 / no-temporal-layers / open-gop / min-keyint=23 / keyint=250 / gop-lookahead=0 / bframes=8 / b-adapt=2 / b-pyramid / bframe-bias=0 / rc-lookahead=80 / lookahead-slices=6 / scenecut=40 / hist-scenecut=0 / radl=0 / no-splice / no-intra-refresh / ctu=64 / min-cu-size=8 / rect / no-amp / max-tu-size=32 / tu-inter-depth=1 / tu-intra-depth=1 / limit-tu=0 / rdoq-level=2 / dynamic-rd=0.00 / no-ssim-rd / signhide / no-tskip / nr-intra=0 / nr-inter=0 / no-constrained-intra / strong-intra-smoothing / max-merge=3 / limit-refs=3 / limit-modes / me=3 / subme=3 / merange=57 / temporal-mvp / no-frame-dup / no-hme / weightp / no-weightb / no-analyze-src-pics / deblock=0:0 / sao / no-sao-non-deblock / rd=4 / selective-sao=4 / no-early-skip / rskip / no-fast-intra / no-tskip-fast / no-cu-lossless / no-b-intra / no-splitrd-skip / rdpenalty=0 / psy-rd=1.50 / psy-rdoq=2.00 / no-rd-refine / no-lossless / cbqpoffs=0 / crqpoffs=0 / rc=crf / crf=19.0 / qcomp=0.60 / qpstep=4 / stats-write=0 / stats-read=0 / ipratio=1.40 / pbratio=1.30 / aq-mode=3 / aq-strength=1.00 / cutree / zone-count=0 / no-strict-cbr / qg-size=32 / no-rc-grain / qpmax=69 / qpmin=0 / no-const-vbv / sar=0 / overscan=0 / videoformat=5 / range=0 / colorprim=2 / transfer=2 / colormatrix=2 / chromaloc=0 / display-window=0 / cll=0,0 / min-luma=0 / max-luma=1023 / log2-max-poc-lsb=8 / vui-timing-info / vui-hrd-info / slices=1 / no-opt-qp-pps / no-opt-ref-list-length-pps / no-multi-pass-opt-rps / scenecut-bias=0.05 / hist-threshold=0.03 / no-opt-cu-delta-qp / no-aq-motion / no-hdr10 / no-hdr10-opt / no-dhdr10-opt / no-idr-recovery-sei / analysis-reuse-level=0 / analysis-save-reuse-level=0 / analysis-load-reuse-level=0 / scale-factor=0 / refine-intra=0 / refine-inter=0 / refine-mv=1 / refine-ctu-distortion=0 / limit-sao / ctu-info=0 / no-lowpass-dct / refine-analysis-type=0 / copy-pic=1 / max-ausize-factor=1.0 / no-dynamic-refine / no-single-sei / no-hevc-aq / no-svt / no-field / qp-adaptation-range=1.00 / no-scenecut-aware-qpconformance-window-offsets / right=0 / bottom=0 / decoder-max-rate=0 / no-vbv-live-multi-pass Default : Yes Forced : No Audio #1 ID : 2 Format : AAC LC Format/Info : Advanced Audio Codec Low Complexity Codec ID : A_AAC-2 Duration : 24 min 31 s Bit rate : 277 kb/s Channel(s) : 2 channels Channel layout : L R Sampling rate : 48.0 kHz Frame rate : 46.875 FPS (1024 SPF) Compression mode : Lossy Delay relative to video : 20 ms Stream size : 48.6 MiB (9%) Language : English Default : Yes Forced : No Audio #2 ID : 3 Format : AAC LC Format/Info : Advanced Audio Codec Low Complexity Codec ID : A_AAC-2 Duration : 24 min 31 s Bit rate : 265 kb/s Channel(s) : 2 channels Channel layout : L R Sampling rate : 48.0 kHz Frame rate : 46.875 FPS (1024 SPF) Compression mode : Lossy Delay relative to video : 20 ms Stream size : 46.9 MiB (9%) Language : Japanese Default : No Forced : No Text #1 ID : 4 Format : ASS Codec ID : S_TEXT/ASS Codec ID/Info : Advanced Sub Station Alpha Duration : 24 min 26 s Bit rate : 49 b/s Count of elements : 114 Compression mode : Lossless Stream size : 8.90 KiB (0%) Title : Signs & Songs Language : English Default : Yes Forced : No Text #2 ID : 5 Format : PGS Muxing mode : zlib Codec ID : S_HDMV/PGS Codec ID/Info : Picture based subtitle format used on BDs/HD-DVDs Duration : 24 min 26 s Bit rate : 73.0 kb/s Count of elements : 624 Stream size : 12.8 MiB (2%) Language : English Default : No Forced : No Menu 00:00:00.000 : en:Chapter 01 00:01:30.048 : en:Chapter 02 00:11:58.551 : en:Chapter 03 00:22:46.365 : en:Chapter 04 00:24:15.495 : en:Chapter 05

File list

  • Durarara!!
    • Durarara!!
      • S00E01 - 12.5 Heaven`s Vengeance.mkv (471.5 MiB)
      • S00E02 - OVA - World at Peace.mkv (557.2 MiB)
      • S01E01 - First Words.mkv (512.5 MiB)
      • S01E02 - Highly Unpredictable.mkv (431.1 MiB)
      • S01E03 - Rampant Evil.mkv (454.0 MiB)
      • S01E04 - Utterly Alone.mkv (506.5 MiB)
      • S01E05 - False Advertising.mkv (436.9 MiB)
      • S01E06 - Active Interest.mkv (466.0 MiB)
      • S01E07 - Bad-ass Dude.mkv (443.7 MiB)
      • S01E08 - Ephemeral Dream.mkv (440.2 MiB)
      • S01E09 - Love and Cherish.mkv (388.8 MiB)
      • S01E10 - Never Before Seen.mkv (412.0 MiB)
      • S01E11 - Storm and Stress.mkv (388.0 MiB)
      • S01E12 - Yin and Yang.mkv (473.1 MiB)
      • S01E13 - Takes a Sudden Turn.mkv (448.3 MiB)
      • S01E14 - Turmoil Reigns.mkv (372.2 MiB)
      • S01E15 - Even a Stopped Clock Is Right Twice a Day.mkv (376.0 MiB)
      • S01E16 - Mutual Love.mkv (380.0 MiB)
      • S01E17 - Everything Changes.mkv (495.4 MiB)
      • S01E18 - Out of Your Control.mkv (426.3 MiB)
      • S01E19 - Anarchy.mkv (451.8 MiB)
      • S01E20 - A New King Will Arise.mkv (443.2 MiB)
      • S01E21 - Everything Covered in Fog.mkv (424.8 MiB)
      • S01E22 - Declaration of Disbandment.mkv (385.6 MiB)
      • S01E23 - Complicated and Confused.mkv (451.7 MiB)
      • S01E24 - Selfless Devotion.mkv (331.6 MiB)