[neoHEVC] Deca-Dence [Season 1] [BD 1080p x265 HEVC AAC] [Dual Audio]

Category:
Date:
2021-01-24 16:39 UTC
Submitter:
Seeders:
15
Information:
Leechers:
1
File size:
4.0 GiB
Completed:
783
Info hash:
a66f76cdf4a208ec1540f2413b1c6dfbeac32f83
![](https://i.imgur.com/RBlGp48.png) *Join **[Discord](https://discord.gg/KYKYZUh)** for Current Projects, Encode-Requests and Seed-Request in case of no available seeds.* **Deca-Dence [Season 1]** *with `Dual Audio (Jpn/Eng)` and `Eng Subs` in `BD 1080p HEVC`* Encode of [Anonymous] (AVC PCM) to (x265 HEVC AAC) with added English audio tracks from [Golumpa] and English subtitles from [Horriblesubs]. *Side Note: I created additional [Signs & Songs] subtitle tracks from the [Dialog] subtitle tracks to go with the added English audio tracks and did some repositioning on all the signs (mostly to get them away from the dialog text).* ![](https://i.imgur.com/4iegWLL.png) **[Trailer](https://www.youtube.com/watch?v=zR4M-LBKX7I)** ![](https://i.imgur.com/3UxGuWB.png) ![](https://i.imgur.com/ZCtSawZ.png) **[MyAnimeList](https://myanimelist.net/anime/40056/Deca-Dence)** --- **Patches** ? **[Episode 7 ENG-Audio delay FIXED](https://drive.google.com/file/d/1mL_OBzHvdtNLKrTwzTsea9lBErjR69fo/view?usp=sharing)** --- **Synopsis** Far in the future, the lifeforms known as Gadoll suddenly arose as a threat to humanity. The last surviving humans on Earth confine themselves to the Tank, a lower district in the giant mobile fortress Deca-Dence. While the Gears who live on the upper floors are warriors who go out to fight as part of the Power, most Tankers are content to provide support from the backlines, butchering Gadoll meat and reinforcing defenses. Natsume is among those who would rather go to the front lines; undeterred by her prosthetic right arm, she seeks to join the small number of Tanker soldiers who join the Gears in combat. But despite her peers at the orphanage each receiving their work assignments, Natsume’s enlistment to the Power remains unapproved. In the meantime, she begins a job as a cleaner in an armor repair team led by the hard-nosed and apathetic Kaburagi, who seems to be more than he lets on. Though initially cold to his idealistic subordinate, he soon recognizes in her the potential to upset the status quo of the world. As Natsume’s new mentor, Kaburagi prepares her for the special and unique role as a game-changing bug in the system. ![](https://i.imgur.com/cLb9dXt.png) --- **Comparison** *Open links, toggle with mouseclick and check title.* [![](https://i.imgur.com/aG0qDEm.png)](https://slow.pics/c/DS14uTzi) [![](https://i.imgur.com/DXf8ua3.png)](https://slow.pics/c/BVFu72Fx) [![](https://i.imgur.com/hluFHEy.png)](https://slow.pics/c/JdAzHmCe) --- **Language Options** I included two simple scripts that you can apply to these files to do the following (Windows only): 1. Change [Default Tracks]: Switches default tracks to *A:Japanese S:Dialog* 2. Make [Single Audio]: Throws out *English audio* and *Signs&Songs subtitles* tracks To apply these put all the video files into the *Language Options* folder and run the .bat file. <1> Changes existing files, <2> creates new ones in the *output* folder. --- **Source** ?️ Video and JPN Audio: **[[Anonymous]](https://nyaa.si/view/1318803)** ?️ Eng Audio: **[[Golumpa]](https://nyaa.si/view/1274810)** ?️ Subtitles: **[[EMBER]](https://nyaa.si/view/1283202)** ? *Subtitles Info: [Horriblesubs] - Format `ASS`* --- **Media Info** ? [Full Mediainfo incl. Encoder Settings](https://pastebin.com/4YZrJQvz) ``` General Unique ID : 270354243617295974038606002386655107646 (0xCB6455559AC15B386C09EE240A35DA3E) Complete name : Deca-Dence - S01E04.mkv Format : Matroska Format version : Version 4 File size : 330 MiB Duration : 23 min 41 s Overall bit rate : 1 946 kb/s Movie name : Deca-Dence - S01E04 Encoded date : UTC 2020-12-25 11:46:40 Writing application : mkvmerge v47.0.0 ('Black Flag') 64-bit Writing library : libebml v1.3.10 + libmatroska v1.5.2 / Lavf58.29.100 Attachments : OpenSans-Semibold.ttf Video ID : 1 Format : HEVC Format/Info : High Efficiency Video Coding Format profile : Main 10@L4.1@High Codec ID : V_MPEGH/ISO/HEVC Duration : 23 min 40 s Bit rate : 1 448 kb/s Width : 1 920 pixels Height : 1 080 pixels Display aspect ratio : 16:9 Frame rate mode : Constant Frame rate : 23.976 (24000/1001) FPS Color space : YUV Chroma subsampling : 4:2:0 Bit depth : 10 bits Bits/(Pixel*Frame) : 0.029 Stream size : 245 MiB (74%) Writing library : x265 3.2.1+1-b5c86a64bbbe:[Windows][GCC 9.2.0][64 bit] 10bit Encoding settings :<Check Link Above> Default : Yes Forced : No Color range : Limited Color primaries : BT.709 Transfer characteristics : BT.709 Matrix coefficients : BT.709 Audio #1 ID : 2 Format : AAC LC Format/Info : Advanced Audio Codec Low Complexity Codec ID : A_AAC-2 Duration : 23 min 40 s Bit rate : 253 kb/s Channel(s) : 2 channels Channel layout : L R Sampling rate : 48.0 kHz Frame rate : 46.875 FPS (1024 SPF) Compression mode : Lossy Delay relative to video : -37 ms Stream size : 42.9 MiB (13%) Title : Stereo - ENG (AAC) Language : English Default : Yes Forced : No Audio #2 ID : 3 Format : AAC LC Format/Info : Advanced Audio Codec Low Complexity Codec ID : A_AAC-2 Duration : 23 min 40 s Bit rate : 241 kb/s Channel(s) : 2 channels Channel layout : L R Sampling rate : 48.0 kHz Frame rate : 46.875 FPS (1024 SPF) Compression mode : Lossy Delay relative to video : -43 ms Stream size : 40.8 MiB (12%) Title : Stereo - JPN (AAC) Language : Japanese Default : No Forced : No Text #1 ID : 4 Format : ASS Codec ID : S_TEXT/ASS Codec ID/Info : Advanced Sub Station Alpha Duration : 6 min 53 s Bit rate : 15 b/s Count of elements : 13 Compression mode : Lossless Stream size : 788 Bytes (0%) Title : Signs - ENG (ASS) Language : English Default : Yes Forced : No Text #2 ID : 5 Format : ASS Codec ID : S_TEXT/ASS Codec ID/Info : Advanced Sub Station Alpha Duration : 21 min 50 s Bit rate : 107 b/s Count of elements : 339 Compression mode : Lossless Stream size : 17.2 KiB (0%) Title : Dialog - ENG (ASS) Language : English Default : No Forced : No ```

File list

  • [neoHEVC] Deca-Dence [BD 1080p x265 HEVC AAC] [Dual Audio]
    • Language Options
      • 1. Change [Default Tracks].bat (283 Bytes)
      • 2. Make [Single Audio] Japanese.bat (124 Bytes)
      • mkvmerge.exe (9.6 MiB)
      • mkvpropedit.exe (5.1 MiB)
    • Deca-Dence - S01E01.mkv (353.4 MiB)
    • Deca-Dence - S01E02.mkv (347.5 MiB)
    • Deca-Dence - S01E03.mkv (366.3 MiB)
    • Deca-Dence - S01E04.mkv (329.7 MiB)
    • Deca-Dence - S01E05.mkv (414.0 MiB)
    • Deca-Dence - S01E06.mkv (330.7 MiB)
    • Deca-Dence - S01E07.mkv (293.2 MiB)
    • Deca-Dence - S01E08.mkv (307.2 MiB)
    • Deca-Dence - S01E09.mkv (320.1 MiB)
    • Deca-Dence - S01E10.mkv (304.4 MiB)
    • Deca-Dence - S01E11.mkv (348.6 MiB)
    • Deca-Dence - S01E12.mkv (339.1 MiB)
![alt text](https://cdn.discordapp.com/emojis/762277624369512459.png?v=1)
BTW, Ep 7 English Dub is off by 1000ms. Just posting for anyone who is having the same problem, I used MKVToolNix GUI to fix it.

neoborn (uploader)

User
**@lain32** Thanks for the info. Shift the english audio track +1000ms just as lain32 mentioned with MKVToolNix or get the fixed episode with the downloadlink in the description above.