[VeloEncodes] Digimon Adventure Zero Two (Dual-Audio) (10-bit) (1080p BDRip) SET 6 of 8

Category:
Date:
2021-01-23 18:03 UTC
Submitter:
Seeders:
0
Information:
Leechers:
0
File size:
5.3 GiB
Completed:
84
Info hash:
3d2b6e41f8d8ee38ccf7ee0c83020c1875b19c69
![img](https://images-na.ssl-images-amazon.com/images/I/71qKii9ZjOL._SL1160_.jpg) The sixth disc from the 15th anniversary Digimon Adventure Zero Two BD Box in glorious, full HD dual-audio greatness. Seek and ye shall find! **MediaInfo (episode 34):** ``` General Unique ID : 111704246310759028970624300458612302469 (0x5409748DC9ABEF74FEAB0D24FE1B2285) Complete name : D:\[VeloEncodes] Digimon Adventure Zero Two (Dual-Audio) (10-bit) (1080p BDRip) SET 6 of 8\[VeloEncodes] Digimon Adventure Zero Two Episode 34 - Protect the Holy Point (Dual-Audio) (10-bit) (1080p BDRip) [2457A23B].mkv Format : Matroska Format version : Version 4 File size : 939 MiB Duration : 23 min 6 s Overall bit rate mode : Variable Overall bit rate : 5 681 kb/s Movie name : [VeloEncodes] Digimon Adventure Zero Two Episode 34 - Protect the Holy Point (Dual-Audio) (10-bit) (1080p BDRip) Encoded date : UTC 2021-01-23 15:35:57 Writing application : mkvmerge v47.0.0 ('Black Flag') 64-bit Writing library : libebml v1.3.10 + libmatroska v1.5.2 / Lavf58.29.100 Video ID : 5 Format : HEVC Format/Info : High Efficiency Video Coding Codec ID : V_MPEGH/ISO/HEVC Duration : 23 min 5 s Bit rate : 4 581 kb/s Width : 1 440 pixels Height : 1 080 pixels Display aspect ratio : 4:3 Frame rate mode : Constant Frame rate : 23.976 (24000/1001) FPS Bits/(Pixel*Frame) : 0.123 Stream size : 757 MiB (81%) Title : BDrip By 晨曦@CXRAW Language : Japanese Default : Yes Forced : No Audio #1 ID : 2 Format : AC-3 Format/Info : Audio Coding 3 Commercial name : Dolby Digital Codec ID : A_AC3 Duration : 23 min 6 s Bit rate mode : Constant Bit rate : 192 kb/s Channel(s) : 2 channels Channel layout : L R Sampling rate : 48.0 kHz Frame rate : 31.250 FPS (1536 SPF) Bit depth : 16 bits Compression mode : Lossy Stream size : 31.7 MiB (3%) Title : Saban English Dub Language : English Service kind : Complete Main Default : Yes Forced : No Audio #2 ID : 3 Format : AC-3 Format/Info : Audio Coding 3 Commercial name : Dolby Digital Codec ID : A_AC3 Duration : 23 min 6 s Bit rate mode : Constant Bit rate : 192 kb/s Channel(s) : 2 channels Channel layout : L R Sampling rate : 48.0 kHz Frame rate : 31.250 FPS (1536 SPF) Bit depth : 16 bits Compression mode : Lossy Stream size : 31.7 MiB (3%) Title : Filipino English Dub Language : English Service kind : Complete Main Default : No Forced : No Audio #3 ID : 6 Format : FLAC Format/Info : Free Lossless Audio Codec Codec ID : A_FLAC Duration : 23 min 5 s Bit rate mode : Variable Bit rate : 714 kb/s Channel(s) : 2 channels Channel layout : L R Sampling rate : 48.0 kHz Frame rate : 11.719 FPS (4096 SPF) Bit depth : 16 bits Compression mode : Lossless Stream size : 118 MiB (13%) Title : Original Japanese Audio Writing library : libFLAC 1.2.1 (UTC 2007-09-17) Language : Japanese Default : No Forced : No Text #1 ID : 1 Format : ASS Codec ID : S_TEXT/ASS Codec ID/Info : Advanced Sub Station Alpha Duration : 22 min 47 s Bit rate : 107 b/s Count of elements : 298 Compression mode : Lossless Stream size : 18.0 KiB (0%) Title : English Subs Language : English Default : No Forced : No Text #2 ID : 4 Format : ASS Codec ID : S_TEXT/ASS Codec ID/Info : Advanced Sub Station Alpha Duration : 22 min 47 s Bit rate : 21 b/s Count of elements : 48 Compression mode : Lossless Stream size : 3.55 KiB (0%) Title : English Signs Language : English Default : Yes Forced : No ``` **Episodes included in this release:** Episode 34 - Protect the Holy Point Episode 35 - Assault! BlackWarGreymon Episode 36 - The Steel Angel, Shakkoumon Episode 37 - The Gigantic Ultimate, Qinglongmon Episode 38 - Holy Night, The DIgimon Reunion! Episode 39 - General Mobilization! Imperialdramon **Further release information:** Video and original Japanese audio by CXRAW English and Filipino English audio by chillock/Out Of Control Subs by PositronCannon **Release notes:** Terribly sorry for the delay. I had lost all my data from the seedbox, and coupled with an HDD crash, this had crippled my motivation to do anything for a solid few months. It was only thanks to legendary uploader UsifRenegade that I was able to get back my original Zero Two releases, which I will be packaging into a batch torrent once I'm finished up with the series. Expect the next batch to take a while, but you know like, hopefully not as long as it took me to release *this* torrent, since there are two or three episodes in there that are not just simple muxes, but I actually need to sync audio for. Also, a huge shoutout to dedsec, without whom I would never have acquired the rest of the Tamers BDMVs (besides the first three or so, for which I owe a huge debt of gratitude to Judas). Regarding why this release is tagged as a remake, it's because the person who originally told me not to tag my releases as remakes got banned from Nyaa, and I'm playing it safe. However, should I indeed not need to tag my releases as remakes, let me know, so that I can remove the remake check mark. *Enjoy, and don't forget to seed!* **For more DigiTastic content, join our Telegram channel:** http://t.me/veloencodesreleases It’s a new year, and all I ask is that you support me with your kind words of encouragement and continued downloads of my releases. Now, the gate to adventure opens.

File list

  • [VeloEncodes] Digimon Adventure Zero Two (Dual-Audio) (10-bit) (1080p BDRip) SET 6 of 8
    • [VeloEncodes] DIgimon Adventure Zero Two Episode 37 - The GIgantic Ultimate, Qinglongmon (Dual-Audio) (10-bit) (1080p BDRip) [11C93955].mkv (910.4 MiB)
    • [VeloEncodes] DIgimon Adventure Zero Two Episode 39 - General Mobilization! Imperialdramon (Dual-Audio) (10-bit) (1080p BDRip) [B0DC0CDD].mkv (870.2 MiB)
    • [VeloEncodes] Digimon Adventure Zero Two Episode 34 - Protect the Holy Point (Dual-Audio) (10-bit) (1080p BDRip) [2457A23B].mkv (938.8 MiB)
    • [VeloEncodes] Digimon Adventure Zero Two Episode 35 - Assault! BlackWarGreymon (Dual-Audio) (10-bit) (1080p BDRip) [09351138].mkv (895.6 MiB)
    • [VeloEncodes] Digimon Adventure Zero Two Episode 36 - The Steel Angel, Shakkoumon (Dual-Audio) (10-bit) (1080p BDRip) [C5958B16].mkv (999.5 MiB)
    • [VeloEncodes] Digimon Adventure Zero Two Episode 38 - Holy Night, The Big Digimon Reunion! (Dual-Audio) (10-bit) (1080p BDRip) [13A35EAB].mkv (858.1 MiB)

thecharioteermode (uploader)

User
Just a heads-up: For some reason, my seedbox is seeding this super slow at the moment, and I see only one connected peer, even though right now on this page it shows 4 leechers. So you know, after a couple of hours, if you guys still have trouble downloading these episodes, I'll put 'em on Drive or something. EDIT: 4 peers now. Something is definitely up.
Who is your seedbox provider? And thank you so much

thecharioteermode (uploader)

User
@JC2217, it's Seedbox.io. I found out too late that they have an option for automatic backups but it's like, €5 extra.
It would not be a provider if they were not trying to weasel extra money. :S Episodes looks amazing!

thecharioteermode (uploader)

User
Lol thanks @TheAllyKat, and yeah I agree that data, like everything, has become more of a business. As for the episodes looking amazing, I can't take credit for that. We have the wonderful encoders at CXRAW to thank for that. I simply muxed in the audio from chillock's previous 480p release with the CXRAW video. Although, in the next two volumes there will be a fair number of episodes (a total of 6 episodes to be precise) where I'll have to manually sync the Saban English dub from other sources to the CXRAW video, so if those sync up perfectly and sound good, you know whom to thank :)