[neoHEVC] Uma Musume: Pretty Derby [Season 1 + Specials] [BD 1080p x265 HEVC AAC]

Category:
Date:
2021-01-23 13:30 UTC
Submitter:
Seeders:
27
Information:
Leechers:
0
File size:
5.2 GiB
Completed:
1166
Info hash:
4228c375edda03ff7726357214327ef4c50d9e46
![](https://i.imgur.com/RBlGp48.png) *Join **[Discord](https://discord.gg/KYKYZUh)** for Current Projects, Encode-Requests and Seed-Request in case of no available seeds.* **Uma Musume: Pretty Derby [Season 1]** Including *Uma Musume: Pretty Derby - BNW no Chikai [Specials]* *with `Jpn Dub` and `Eng Subs` in `BD 1080p HEVC`* Reencode of [VCB-Studio] (x265 HEVC FLAC) to (x265 HEVC AAC) with added English subtitles from [DmonHiro] and [GH]. *Side Note: I did some subtitle restyling (mainly positioning and size) and found some nice karaoke OP and ED subtitles in the specials. I copied these over to the main series which was missing karaoke. Unfortuantely the main series didn't have the same ED in all the episodes. So I was only able to insert ED karaoke for those episodes that had the same ending as the specials. EP 5/7/12/13 had a different ending and therefor no ED karaoke.* ![](https://i.imgur.com/4iegWLL.png) **[Trailer](https://www.youtube.com/watch?v=_6rP_HS0ox4)** ![](https://i.imgur.com/3UxGuWB.png) ![](https://i.imgur.com/ZCtSawZ.png) **[MyAnimeList: Uma Musume: Pretty Derby](https://myanimelist.net/anime/35249/Uma_Musume__Pretty_Derby_TV)** ![](https://i.imgur.com/3UxGuWB.png) ![](https://i.imgur.com/ZCtSawZ.png) **[MyAnimeList: Uma Musume: Pretty Derby - BNW no Chikai](https://myanimelist.net/anime/37916/Uma_Musume__Pretty_Derby_-_BNW_no_Chikai)** --- **Synopsis** In a world very much like our own, great race horses of the past have a chance to be reborn as "horse girls"—girls with the ears and tails of horses as well as their speed and endurance. The best of these horse girls go to train at Tokyo's Tracen Academy, hopefully moving on to fame and fortune as both racers and idols. Special Week, a high school horse girl from the countryside, has just transferred to Tracen, and she's determined to fulfill her promise to her mother to become the best horse girl in Japan. On her way to school, she takes a pit stop at the race track and instantly falls in love with Silence Suzuka's style, becoming determined to race on the same team as her. ![](https://i.imgur.com/jLT2ymF.png) --- **Comparison** *Open links, toggle with mouseclick and check title.* [![](https://i.imgur.com/lHoIbhs.png)](https://slow.pics/c/bRArd2EQ) [![](https://i.imgur.com/wM5ZLAA.png)](https://slow.pics/c/3MYQJ13I) [![](https://i.imgur.com/A20HV6d.png)](https://slow.pics/c/rYHheoS2) --- **Source** ?️ Video and Audio: **[[VCB-Studio]](https://nyaa.si/view/1112252)** ?️ Subtitles: **[[DmonHiro]](https://nyaa.si/view/1151868)** ? *Subtitles Info: [DmonHiro (based on HS)] [GH] - Format `ASS`* --- **Media Info** ``` General Unique ID : 78651874029688965966486422804144393974 (0x3B2BCCC8B5D1B0247C441453E0250EF6) Complete name : Uma Musume - Pretty Derby - S01E01.mkv Format : Matroska Format version : Version 4 File size : 293 MiB Duration : 23 min 56 s Overall bit rate : 1 711 kb/s Movie name : Uma Musume - Pretty Derby - S01E01 Encoded date : UTC 2021-01-23 12:20:16 Writing application : mkvmerge v47.0.0 ('Black Flag') 64-bit Writing library : libebml v1.3.10 + libmatroska v1.5.2 / Lavf58.29.100 Attachments : ROSARIO-BOLDITALIC.OTF / CABIN-BOLD.TTF / CABIN-BOLDITALIC.TTF / garto16.ttf / KMKDSP.ttf / Lato-Bol.ttf / Lato-Reg.ttf / OpenSans-Regular.ttf / OpenSans-SemiBold.ttf / OpenSans-SemiBoldItalic.ttf / Patagonia.ttf Video ID : 1 Format : HEVC Format/Info : High Efficiency Video Coding Format profile : Main 10@L4.1@High Codec ID : V_MPEGH/ISO/HEVC Duration : 23 min 55 s Bit rate : 1 456 kb/s Width : 1 920 pixels Height : 1 080 pixels Display aspect ratio : 16:9 Frame rate mode : Constant Frame rate : 23.976 (24000/1001) FPS Color space : YUV Chroma subsampling : 4:2:0 Bit depth : 10 bits Bits/(Pixel*Frame) : 0.029 Stream size : 249 MiB (85%) Writing library : x265 3.2.1+1-b5c86a64bbbe:[Windows][GCC 9.2.0][64 bit] 10bit Encoding settings : cpuid=1111039 / frame-threads=2 / numa-pools=4 / wpp / no-pmode / no-pme / no-psnr / no-ssim / log-level=2 / input-csp=1 / input-res=1920x1080 / interlace=0 / total-frames=0 / level-idc=41 / high-tier=1 / uhd-bd=0 / ref=5 / no-allow-non-conformance / no-repeat-headers / annexb / no-aud / no-hrd / info / hash=0 / no-temporal-layers / open-gop / min-keyint=24 / keyint=240 / gop-lookahead=0 / bframes=8 / b-adapt=2 / b-pyramid / bframe-bias=0 / rc-lookahead=25 / lookahead-slices=4 / scenecut=40 / radl=0 / no-splice / no-intra-refresh / ctu=64 / min-cu-size=8 / rect / no-amp / max-tu-size=32 / tu-inter-depth=1 / tu-intra-depth=1 / limit-tu=0 / rdoq-level=2 / dynamic-rd=0.00 / no-ssim-rd / signhide / no-tskip / nr-intra=0 / nr-inter=0 / no-constrained-intra / strong-intra-smoothing / max-merge=3 / limit-refs=3 / limit-modes / me=3 / subme=3 / merange=57 / temporal-mvp / no-hme / weightp / no-weightb / no-analyze-src-pics / deblock=0:0 / sao / no-sao-non-deblock / rd=4 / selective-sao=4 / no-early-skip / rskip / no-fast-intra / no-tskip-fast / no-cu-lossless / no-b-intra / no-splitrd-skip / rdpenalty=0 / psy-rd=0.00 / psy-rdoq=1.00 / no-rd-refine / no-lossless / cbqpoffs=0 / crqpoffs=0 / rc=crf / crf=23.0 / qcomp=0.60 / qpstep=4 / stats-write=0 / stats-read=0 / vbv-maxrate=50000 / vbv-bufsize=50000 / vbv-init=0.9 / crf-max=0.0 / crf-min=0.0 / ipratio=1.40 / pbratio=1.30 / aq-mode=3 / aq-strength=0.80 / cutree / zone-count=0 / no-strict-cbr / qg-size=32 / no-rc-grain / qpmax=69 / qpmin=0 / no-const-vbv / sar=1 / overscan=0 / videoformat=5 / range=0 / colorprim=1 / transfer=1 / colormatrix=1 / chromaloc=0 / display-window=0 / cll=0,0 / min-luma=0 / max-luma=1023 / log2-max-poc-lsb=8 / vui-timing-info / vui-hrd-info / slices=1 / no-opt-qp-pps / no-opt-ref-list-length-pps / no-multi-pass-opt-rps / scenecut-bias=0.05 / no-opt-cu-delta-qp / no-aq-motion / no-hdr / no-hdr-opt / no-dhdr10-opt / no-idr-recovery-sei / analysis-reuse-level=5 / scale-factor=0 / refine-intra=0 / refine-inter=0 / refine-mv=1 / refine-ctu-distortion=0 / no-limit-sao / ctu-info=0 / no-lowpass-dct / refine-analysis-type=0 / copy-pic=1 / max-ausize-factor=1.0 / no-dynamic-refine / no-single-sei / no-hevc-aq / no-svt / no-field / qp-adaptation-range=1.00 Default : Yes Forced : No Color range : Limited Color primaries : BT.709 Transfer characteristics : BT.709 Matrix coefficients : BT.709 Audio ID : 2 Format : AAC LC Format/Info : Advanced Audio Codec Low Complexity Codec ID : A_AAC-2 Duration : 23 min 56 s Bit rate : 225 kb/s Channel(s) : 2 channels Channel layout : L R Sampling rate : 48.0 kHz Frame rate : 46.875 FPS (1024 SPF) Compression mode : Lossy Delay relative to video : -43 ms Stream size : 38.4 MiB (13%) Title : Stereo - JPN (AAC) Language : Japanese Default : Yes Forced : No Text ID : 3 Format : ASS Codec ID : S_TEXT/ASS Codec ID/Info : Advanced Sub Station Alpha Duration : 23 min 51 s Bit rate : 19.2 kb/s Count of elements : 15070 Compression mode : Lossless Stream size : 3.28 MiB (1%) Title : Dialog - ENG (ASS) Language : English Default : Yes Forced : No Menu 00:00:00.000 : :Chapter 1 00:10:13.029 : :Chapter 2 00:21:05.723 : :Chapter 3 00:22:25.052 : :Chapter 4 ```

File list

  • [neoHEVC] Uma Musume [Season 1 + Specials] [BD 1080p x265 HEVC AAC]
    • Specials
      • Uma Musume - Pretty Derby - S00E01 - (S1O1 BNW no Chikai).mkv (284.6 MiB)
      • Uma Musume - Pretty Derby - S00E02 - (S1O2 BNW no Chikai).mkv (298.7 MiB)
      • Uma Musume - Pretty Derby - S00E03 - (S1O3 BNW no Chikai).mkv (386.5 MiB)
    • Uma Musume - Pretty Derby - S01E01.mkv (292.9 MiB)
    • Uma Musume - Pretty Derby - S01E02.mkv (293.1 MiB)
    • Uma Musume - Pretty Derby - S01E03.mkv (305.2 MiB)
    • Uma Musume - Pretty Derby - S01E04.mkv (307.8 MiB)
    • Uma Musume - Pretty Derby - S01E05.mkv (386.7 MiB)
    • Uma Musume - Pretty Derby - S01E06.mkv (332.9 MiB)
    • Uma Musume - Pretty Derby - S01E07.mkv (261.5 MiB)
    • Uma Musume - Pretty Derby - S01E08.mkv (305.4 MiB)
    • Uma Musume - Pretty Derby - S01E09.mkv (336.3 MiB)
    • Uma Musume - Pretty Derby - S01E10.mkv (343.6 MiB)
    • Uma Musume - Pretty Derby - S01E11.mkv (316.4 MiB)
    • Uma Musume - Pretty Derby - S01E12.mkv (388.8 MiB)
    • Uma Musume - Pretty Derby - S01E13.mkv (435.3 MiB)
don't have Umayou? https://myanimelist.net/anime/38835/Umayon

neoborn (uploader)

User
Try this: https://nyaa.si/view/1282860
Subs appear 1 frame too early again

neoborn (uploader)

User
@janmayenese Thanks for your feedback. I have found a solution to that 1 frame sub delay problem I have been having. Get these files, extract the folder and put all video files into it. Then run the accompanying .bat. New files will be in the *output* folder. **[1 Frame Sub Fix](https://drive.google.com/file/d/1gH_SEcy5I5w3g4P2H83TgmsNW29p7gyi/view?usp=sharing)**