Digimon Tamers (2001) - The Remastered Cut - Stereophonic Edition - Vol. 1 (1080p HEVC FLAC 2.0) [Velo-BFT]

Category:
Date:
2021-01-21 19:10 UTC
Submitter:
Seeders:
1
Information:
Leechers:
1
File size:
5.5 GiB
Completed:
166
Info hash:
e7d4aebbc6ca741961529f9d851a5d871cb132ac
![img](https://i.imgur.com/hrtFLIT.jpg) ![img](https://i.imgur.com/VRqFR5U.jpg) ![img](https://i.imgur.com/DLdOEhM.jpg) The first volume of *Digimon Tamers* in glorious full HD, dubbed over raw. This is the stereophonic edition, meaning that it has its audio in FLAC stereo. I was working on a 5.1 audio version with manual upmixing by means of Spleeter and Audacity, but that has been relegated to secondary importance (more on that later). **MediaInfo (episode 1):** ``` General Unique ID : 31126851518122179128399367390242404336 (0x176AD0443E87718C0E61C9BFCC25F7F0) Complete name : F:\Digimon Tamers (2001) - The Remastered Cut - Stereophonic Edition - Vol. 1 (1080p HEVC FLAC 2.0) [Velo-BFT]\Season 1\Digimon Tamers (2001) - S01E01 - Guilmon Comes Alive (1080p HEVC FLAC 2.0) [Velo-BFT] [7CC8E07F].mkv Format : Matroska Format version : Version 4 File size : 1.08 GiB Duration : 20 min 46 s Overall bit rate mode : Variable Overall bit rate : 7 420 kb/s Movie name : Digimon Tamers (2001) - S01E01 - Guilmon Comes Alive Encoded date : UTC 2021-01-09 13:39:27 Writing application : mkvmerge v47.0.0 ('Black Flag') 64-bit Writing library : libebml v1.3.10 + libmatroska v1.5.2 Attachments : ClearSans-Bold_0.ttf / ClearSans-BoldItalic_0.ttf / ClearSans-Italic_0.ttf / ClearSans-Light_0.ttf / ClearSans-Medium_0.ttf / ClearSans-MediumItalic_0.ttf / ClearSans-Regular_0.ttf / ClearSans-Thin_0.ttf Encoding Gui : Hybrid 2020.10.11.1 Video ID : 1 Format : HEVC Format/Info : High Efficiency Video Coding Format profile : Main 10@L4@Main Codec ID : V_MPEGH/ISO/HEVC Duration : 20 min 46 s Bit rate : 6 516 kb/s Width : 1 436 pixels Height : 1 080 pixels Display aspect ratio : 4:3 Frame rate mode : Constant Frame rate : 29.970 (30000/1001) FPS Color space : YUV Chroma subsampling : 4:2:0 Bit depth : 10 bits Bits/(Pixel*Frame) : 0.140 Stream size : 968 MiB (88%) Title : 10-bit FHD video by BFT Writing library : x265 3.4+26-ga82c6c7a7:[Windows][GCC 10.2.0][64 bit] 10bit Encoding settings : cpuid=1049583 / frame-threads=3 / numa-pools=8 / wpp / no-pmode / no-pme / no-psnr / no-ssim / log-level=2 / input-csp=1 / input-res=1436x1080 / interlace=0 / total-frames=0 / level-idc=0 / high-tier=1 / uhd-bd=0 / ref=3 / no-allow-non-conformance / no-repeat-headers / annexb / no-aud / no-hrd / info / hash=0 / no-temporal-layers / no-open-gop / min-keyint=25 / keyint=250 / gop-lookahead=0 / bframes=3 / b-adapt=2 / b-pyramid / bframe-bias=0 / rc-lookahead=20 / lookahead-slices=0 / scenecut=40 / hist-scenecut=0 / radl=0 / no-splice / no-intra-refresh / ctu=64 / min-cu-size=8 / no-rect / no-amp / max-tu-size=32 / tu-inter-depth=1 / tu-intra-depth=1 / limit-tu=0 / rdoq-level=2 / dynamic-rd=0.00 / ssim-rd / signhide / no-tskip / nr-intra=0 / nr-inter=0 / no-constrained-intra / strong-intra-smoothing / max-merge=3 / limit-refs=0 / limit-modes / me=1 / subme=2 / merange=57 / temporal-mvp / no-frame-dup / no-hme / weightp / no-weightb / no-analyze-src-pics / deblock=-1:-1 / no-sao / no-sao-non-deblock / rd=3 / selective-sao=0 / no-early-skip / rskip / no-fast-intra / no-tskip-fast / no-cu-lossless / b-intra / no-splitrd-skip / rdpenalty=0 / psy-rd=2.50 / psy-rdoq=10.00 / no-rd-refine / no-lossless / cbqpoffs=-2 / crqpoffs=-2 / rc=crf / crf=12.0 / qcomp=0.60 / qpstep=4 / stats-write=0 / stats-read=0 / ipratio=1.40 / pbratio=1.30 / aq-mode=1 / aq-strength=0.00 / cutree / zone-count=0 / no-strict-cbr / qg-size=32 / no-rc-grain / qpmax=69 / qpmin=0 / no-const-vbv / sar=0 / overscan=0 / videoformat=5 / range=0 / colorprim=2 / transfer=2 / colormatrix=1 / chromaloc=0 / display-window=0 / cll=0,0 / min-luma=0 / max-luma=1023 / log2-max-poc-lsb=8 / vui-timing-info / vui-hrd-info / slices=1 / opt-qp-pps / opt-ref-list-length-pps / no-multi-pass-opt-rps / scenecut-bias=0.05 / hist-threshold=0.03 / no-opt-cu-delta-qp / no-aq-motion / no-hdr10 / no-hdr10-opt / no-dhdr10-opt / no-idr-recovery-sei / analysis-reuse-level=0 / analysis-save-reuse-level=0 / analysis-load-reuse-level=0 / scale-factor=0 / refine-intra=0 / refine-inter=0 / refine-mv=1 / refine-ctu-distortion=0 / no-limit-sao / ctu-info=0 / no-lowpass-dct / refine-analysis-type=0 / copy-pic=1 / max-ausize-factor=1.0 / no-dynamic-refine / no-single-sei / no-hevc-aq / no-svt / no-field / qp-adaptation-range=1.00 / no-scenecut-aware-qpconformance-window-offsets / right=0 / bottom=0 / decoder-max-rate=0 / no-vbv-live-multi-pass Language : English Default : Yes Forced : Yes Color range : Limited Matrix coefficients : BT.709 Audio ID : 2 Format : FLAC Format/Info : Free Lossless Audio Codec Codec ID : A_FLAC Duration : 20 min 46 s Bit rate mode : Variable Bit rate : 876 kb/s Channel(s) : 2 channels Channel layout : L R Sampling rate : 48.0 kHz Frame rate : 10.417 FPS (4608 SPF) Bit depth : 16 bits Compression mode : Lossless Stream size : 130 MiB (12%) Title : English FLAC Stereo Writing library : Lavf58.56.100 Language : English Default : Yes Forced : No Text #1 ID : 3 Format : ASS Codec ID : S_TEXT/ASS Codec ID/Info : Advanced Sub Station Alpha Duration : 20 min 13 s Bit rate : 95 b/s Count of elements : 312 Compression mode : Lossless Stream size : 14.1 KiB (0%) Title : Dubtitles by Velocifaptor (ASS) Language : English Default : Yes Forced : No Text #2 ID : 4 Format : PGS Muxing mode : zlib Codec ID : S_HDMV/PGS Codec ID/Info : Picture based subtitle format used on BDs/HD-DVDs Duration : 20 min 14 s Bit rate : 26.4 kb/s Count of elements : 419 Stream size : 3.82 MiB (0%) Title : Dubtitles by Velocifaptor (PGS) Language : English Default : No Forced : No Menu 00:00:00.000 : en:Opening 00:01:00.000 : en:Episode 00:20:15.000 : en:Ending ``` **Screenshots:** This release is identical in quality to the supercut, with some minor changes. For screenshots from the supercut, please see my earlier torrent. **Episodes included:** Episode 1 - Guilmon Comes Alive Episode 2 - Digimon, Digimon Everywhere Episode 3 - To Fight Or Not to Fight Episode 4 - It Came From the Other Side Episode 5 - Dream A Little Dream Episode 6 - O Partner, Where Art Thou? ***FAQ (aka questions you shouldn't be asking in the comments because they're already answered here):*** https://pastebin.com/vKsxKLWr **Instructions for Plex/Emby/Jellyfin:** https://pastebin.com/XpAwsiHJ **Instructions for Kodi/legacy scrapers:** https://pastebin.com/RKMPRiiQ *For more DigiTastic content, join our Telegram channel:* http://t.me/veloencodesreleases It's a new year, and all I ask is that you support me with your kind words of encouragement and continued downloads of my releases. You too, should aim to be a Tamer!

File list

  • Digimon Tamers (2001) - The Remastered Cut - Stereophonic Edition - Vol. 1 (1080p HEVC FLAC 2.0) [Velo-BFT]
    • Season 1
      • Digimon Tamers (2001) - S01E01 - Guilmon Comes Alive (1080p HEVC FLAC 2.0) [Velo-BFT] [7CC8E07F].mkv (1.1 GiB)
      • Digimon Tamers (2001) - S01E02 - Digimon, Digimon Everywhere (1080p HEVC FLAC 2.0) [Velo-BFT] [12B3EA19].mkv (802.6 MiB)
      • Digimon Tamers (2001) - S01E03 - To Fight Or Not To Fight (1080p HEVC FLAC 2.0) [Velo-BFT] [F96F5432].mkv (779.9 MiB)
      • Digimon Tamers (2001) - S01E04 - It Came From the Other Side (1080p HEVC FLAC 2.0) [Velo-BFT] [F1844DA2].mkv (1.1 GiB)
      • Digimon Tamers (2001) - S01E05 - Dream A Little Dream (1080p HEVC FLAC 2.0) [Velo-BFT] [9533121E].mkv (991.5 MiB)
      • Digimon Tamers (2001) - S01E06 - O Partner, Where Art Thou (1080p HEVC FLAC 2.0) [Velo-BFT] [0A05C4F4].mkv (906.5 MiB)
      • Downloaded from ETTV.txt (101 Bytes)
      • Downloaded from Nyaa Torrents.txt (44 Bytes)
      • VeloEncodes.txt (84 Bytes)

thecharioteermode (uploader)

User
Hoping this seeds this time around, otherwise I'm gonna be super mad. If you downloaded the earlier torrent, delete the torrent file, and add this one to your client/seedbox/Colab/whatever.
Thank you so much
Looks good, but could definitely do with some strong antialiasing. https://puu.sh/H9ejz/ac7d9d9ecf.png https://puu.sh/H9ejZ/9106c07194.jpg pretty much all line-art looks like this.

thecharioteermode (uploader)

User
@Libag98, you're most welcome, and I once again apologize for the delays. @ChaoXide, thanks for bringing it to my notice, senpai. In fact, I too noticed the aliasing problem on my end. Unfortunately, there is little I can do before volume 3 as the files till volume 2 have already been encoded. Perhaps you could suggest a good anti-aliasing filter, and we could like, add it as an AviSynth script to the encode job for volume 3 onwards? Although I imagine this aliasing is a by-product of QTGMC, so the AviSynth script is gonna have to process the output of the encoder AFTER QTGMC. EDIT: I should add, we're using Hybrid Encoder. If that has an anti-aliasing function built in, I'd prefer to use that. EDIT 2: I'll explain our logic to go with QTGMC rather than IVTC later, but please, in the meantime, please suggest a suitable anti-aliasing function.
Hey thecharioteermode, I saw a while ago you mentioned you lost the CXRAW files, and that's why you're not doing a dual-audio release anymore. Does that mean if you had the files, you'd continue the old project (dual audio, not dubbed over raw)? I *do* have the CXRAW files, but they were remuxed so I can't seed the original torrent. If these are still of interest to you, I can look into uploading them somewhere. I don't mean to discredit the hard work you've put into this release! I just personally preferred the dual audio version. Whatever you choose to do, I'll respect it - we all only have so much free time.
Thumbs up! (The choice to go with the English credits is strange but meh! I will await the next batch as I still have last year's release.)

thecharioteermode (uploader)

User
@ceres, actually the thing about the CXRAW files I mentioned was for the Zero Two release, though I do not have the CXRAW files for Tamers at all. I got back the CXRAW files for Zero Two thanks to the efforts of UsifRenegade (a legend among men!), hence I'm still doing the dual-audio release for that. However, that and any potential dual-audio release for Tamers are completely unrelated. BFT and I just found it very cumbersome and ultimately not worth it to try and create a dual-audio version of Tamers, as more often than not, there were huge segments of audio that needed to be modified or spliced in from elsewhere, to the point that it would take away from the whole experience of watching the episodes in English. We found it far more easy and far more rewarding to splice and edit the BDMVs to the English dub, as then we could ultimately have as dub-centric an experience as possible. As for the rest of the Tamers, we'll continue to do it this way until we complete the season. The priority right now is as follows: 1. Supercut 2. Remastered Cut - Stereophonic Edition 3. Remastered Cut - Surround Sound Edition 4. Supercut - Special Edition We DID think that at some point we'll do a dual-audio release with CXRAW and the Singaporean English dub; however, as I mentioned in the FAQ, most of what RenRei00 uploaded to BitChute and SharePoint seems to have been deleted, and I didn't have the foresight to grab it while it was still up. If someone at some point releases that elsewhere, a dual-audio release with just those two audios (but NOT the Saban English dub) is not off the table. Likewise, I have also resolved to finish Zero Two in dual-audio, in case you're looking forward to that.

thecharioteermode (uploader)

User
Filenames for legacy scrapers (with CRC32 hashes, so that you can verify the files' integrity) in case you're using Kodi: https://pastebin.com/zhvHKti8 Instructions in case you're using a legacy scraper such as IMDb are given in the torrent description. This paste will be updated with further episodes' filenames and CRC32 hashes as I release further volumes, so check back to this here torrent in case you download any further volumes and are using a legacy scraper, or just bookmark the PasteBin link. NOTE: The CRC32 hashes are only valid for the stereophonic editions. EDIT: I have edited all of the pastes related to this torrent to be unlisted (but not private). Just drop a line here in case you have trouble accessing them (it's my first time using PasteBin for anything piracy-related).