未来有你.初音未来2020特别感谢Live[WebRip][Hi10P_1080P30fps][特效字幕]

Category:
Date:
2021-01-19 17:46 UTC
Submitter:
Seeders:
0
Information:
No information.
Leechers:
0
File size:
3.7 GiB
Completed:
23
Info hash:
64c63484797c9955509575490e734a1aee3c0d58
General Unique ID : 190290934626481711181287868924067398981 (0x8F28B36F1DE54950AE2F5819D9FD4545) Complete name : E:\BaiduNetdiskDownload\miku with you 2020\未来有你.初音未来2020特别感谢Live[WebRip][Hi10P_1080P30fps][特效字幕].mkv Format : Matroska Format version : Version 4 File size : 3.64 GiB Duration : 1 h 23 min Overall bit rate : 6 245 kb/s Encoded date : UTC 2020-12-28 00:49:08 Writing application : mkvmerge v9.6.0 ('Slave To Your Mind') 32bit Writing library : libebml v1.3.4 + libmatroska v1.4.5 Video ID : 1 Format : HEVC Format/Info : High Efficiency Video Coding Format profile : Main 10@L4@Main Codec ID : V_MPEGH/ISO/HEVC Duration : 1 h 23 min Bit rate : 5 815 kb/s Width : 1 920 pixels Height : 1 080 pixels Display aspect ratio : 16:9 Frame rate mode : Constant Frame rate : 29.970 (30000/1001) FPS Color space : YUV Chroma subsampling : 4:2:0 Bit depth : 10 bits Bits/(Pixel*Frame) : 0.094 Stream size : 3.39 GiB (93%) Writing library : x265 3.0_Au+4-dcbec33bfb0f:[Windows][GCC 8.2.1][64 bit] 10bit Encoding settings : cpuid=1111039 / frame-threads=3 / numa-pools=12 / wpp / no-pmode / no-pme / no-psnr / no-ssim / log-level=2 / input-csp=1 / input-res=1920x1080 / interlace=0 / total-frames=150240 / level-idc=0 / high-tier=1 / uhd-bd=0 / ref=4 / no-allow-non-conformance / no-repeat-headers / annexb / no-aud / no-hrd / info / hash=0 / no-temporal-layers / no-open-gop / min-keyint=1 / keyint=360 / gop-lookahead=0 / bframes=4 / b-adapt=2 / b-pyramid / bframe-bias=0 / rc-lookahead=20 / lookahead-slices=6 / scenecut=40 / radl=0 / no-splice / no-intra-refresh / ctu=64 / min-cu-size=8 / no-rect / no-amp / max-tu-size=32 / tu-inter-depth=1 / tu-intra-depth=1 / limit-tu=0 / rdoq-level=0 / dynamic-rd=0.00 / no-ssim-rd / signhide / no-tskip / nr-intra=0 / nr-inter=0 / no-constrained-intra / strong-intra-smoothing / max-merge=2 / limit-refs=3 / no-limit-modes / me=1 / subme=2 / merange=57 / temporal-mvp / weightp / no-weightb / no-analyze-src-pics / deblock=-3:-3 / no-sao / no-sao-non-deblock / rd=3 / no-early-skip / rskip / no-fast-intra / no-tskip-fast / no-cu-lossless / no-b-intra / no-splitrd-skip / rdpenalty=0 / psy-rd=2.00 / psy-rdoq=0.00 / no-rd-refine / no-lossless / cbqpoffs=0 / crqpoffs=0 / rc=crf / crf=18.0 / qcomp=0.60 / qpstep=4 / stats-write=0 / stats-read=0 / ipratio=1.40 / pbratio=1.30 / aq-mode=2 / aq-strength=1.00 / cutree / zone-count=0 / no-strict-cbr / qg-size=32 / no-rc-grain / qpmax=69 / qpmin=0 / no-const-vbv / sar=1 / overscan=0 / videoformat=5 / range=0 / colorprim=2 / transfer=2 / colormatrix=2 / chromaloc=0 / display-window=0 / max-cll=0,0 / min-luma=0 / max-luma=1023 / log2-max-poc-lsb=8 / vui-timing-info / vui-hrd-info / slices=1 / no-opt-qp-pps / no-opt-ref-list-length-pps / no-multi-pass-opt-rps / scenecut-bias=0.05 / no-opt-cu-delta-qp / no-aq-motion / no-hdr / no-hdr-opt / no-dhdr10-opt / no-idr-recovery-sei / analysis-reuse-level=5 / scale-factor=0 / refine-intra=0 / refine-inter=0 / refine-mv=0 / refine-ctu-distortion=0 / no-limit-sao / ctu-info=0 / no-lowpass-dct / refine-analysis-type=0 / copy-pic=1 / max-ausize-factor=1.0 / no-dynamic-refine / no-single-sei / no-hevc-aq / qp-adaptation-range=1.00 Default : Yes Forced : No Audio ID : 2 Format : AAC LC Format/Info : Advanced Audio Codec Low Complexity Codec ID : A_AAC-2 Duration : 1 h 23 min Bit rate : 428 kb/s Channel(s) : 2 channels Channel layout : L R Sampling rate : 48.0 kHz Frame rate : 46.875 FPS (1024 SPF) Compression mode : Lossy Delay relative to video : 9 ms Stream size : 256 MiB (7%) Language : Japanese Default : Yes Forced : No Menu 00:00:01.000 : :Open 00:01:51.000 : :01.Tell your world/kz 00:06:07.000 : :02.Sweet Devil/八王子p 00:09:58.000 : :03.砂の惑星/ハチ 00:13:59.000 : :MC 00:14:48.000 : :04.FREELY TOMORROW/Mitchie M 00:18:50.000 : :05.COME BACK~重返巅峰~/米库喵 00:22:23.000 : :06.きみとぼくのレゾナンス/斜め上P 00:26:33.000 : :07.Amazing Dolce/ひとしず< xやま△ 00:30:31.000 : :08.Gimme×Gimme/八王子P × ギガP 00:34:13.000 : :09.劣等上等/ギガP 00:38:09.000 : :10.ルカルカ★ナイトフィーバー/samfree 00:41:32.000 : :11.みかぼし/3106。 00:45:35.000 : :12.Calc./ジミ一サムP 00:49:36.000 : :13.踏步、出发/MACHWOLF 00:53:57.000 : :BAND MEMBER INTRODUCTION 00:56:06.000 : :14.Pick Me Up/敌门 00:59:39.000 : :15.shake it!/emon Tes. 01:03:26.000 : :16.ぽかぽかの星/はるまきごはん 01:07:59.000 : :17.ワールドイズマイン/ryo 01:12:14.000 : :18.Hand in Hand/kz 01:18:58.000 : :ED

File list

  • miku with you 2020
    • 未来有你.初音未来2020特别感谢Live[WebRip][Hi10P_1080P30fps][特效字幕].mkv (3.6 GiB)
    • 未来有你2020特别感谢Live外挂中日双语字幕-适配官方录播.SUP (32.3 MiB)

baraa272 (uploader)

User
sorry for the inconvenient i'll continue seeding tomorrow