( Dragontime) Attack on Titan S04E01 1080p WEB-DL AAC 2.0 H.264 DUAL AUDIO

Category:
Date:
2021-01-19 04:23 UTC
Submitter:
Seeders:
16
Information:
No information.
Leechers:
0
File size:
1.4 GiB
Completed:
243
Info hash:
6570adce6d7f2e7fb73517e7229f3aebda0f2100
Format : Matroska Format version : Version 4 / Version 2 File size : 1.38 GiB Duration : 24 min 12 s Overall bit rate : 8 184 kb/s Encoded date : UTC 2021-01-19 03:28:20 Writing application : mkvmerge v52.0.0 ('Secret For The Mad') 64-bit Writing library : libebml v1.4.1 + libmatroska v1.6.2 Video ID : 1 Format : AVC Format/Info : Advanced Video Codec Format profile : High@L4 Format settings, CABAC : Yes Format settings, ReFrames : 4 frames Format settings, GOP : M=3, N=48 Codec ID : V_MPEG4/ISO/AVC Duration : 24 min 12 s Bit rate : 8 000 kb/s Width : 1 920 pixels Height : 1 080 pixels Display aspect ratio : 16:9 Frame rate mode : Constant Frame rate : 23.976 (24000/1001) FPS Color space : YUV Chroma subsampling : 4:2:0 Bit depth : 8 bits Scan type : Progressive Bits/(Pixel*Frame) : 0.161 Stream size : 1.31 GiB (95%) Writing library : x264 core 157 r2948 dada181 Language : English Default : Yes Forced : No Audio #1 ID : 2 Format : AAC Format/Info : Advanced Audio Codec Format profile : LC Codec ID : A_AAC Duration : 24 min 12 s Bit rate : 253 kb/s Channel(s) : 2 channels Channel positions : Front: L R Sampling rate : 48.0 kHz Frame rate : 46.875 FPS (1024 spf) Compression mode : Lossy Delay relative to video : -42 ms Stream size : 43.9 MiB (3%) Language : English Default : Yes Forced : No Audio #2 ID : 3 Format : AAC Format/Info : Advanced Audio Codec Format profile : LC Codec ID : A_AAC Duration : 24 min 12 s Bit rate : 192 kb/s Channel(s) : 2 channels Channel positions : Front: L R Sampling rate : 48.0 kHz Frame rate : 46.875 FPS (1024 spf) Compression mode : Lossy Delay relative to video : -42 ms Stream size : 32.8 MiB (2%) Language : Japanese Default : No Forced : No Text ID : 4 Format : UTF-8 Codec ID : S_TEXT/UTF8 Codec ID/Info : UTF-8 Plain Text Duration : 23 min 46 s Bit rate : 66 b/s Count of elements : 339 Stream size : 11.6 KiB (0%) Language : English Default : Yes Forced : No

File list

  • Attack on Titan S04E01 The Other Side of the Sea.mkv (1.4 GiB)