[Switch-Raws] Beastars Season 2 - 01 [1080p WEB NF x264 AAC].mp4

Category:
Date:
2021-01-14 02:06 UTC
Submitter:
Seeders:
1
Information:
No information.
Leechers:
2
File size:
326.2 MiB
Completed:
35
Info hash:
292d04a0da04dc2353c70e9e973604fabc0e01eb
![alt text](https://i.postimg.cc/ZYLZJFwM/rsz-logo-without-anime-without-logo.jpg "Logo") ___ **Anime name >** Beastars **Season & Episode >** Season 2 & Episode 1 **Source >** Netflix **Subs >** None **Audio >** Japanese ___ General Complete name : [Switch-Raws] Beastars Season 2 - 01 [1080p WEB NF x264 AAC].mp4 Format : MPEG-4 Format profile : Base Media Codec ID : isom (isom/iso2/avc1/mp41) File size : 326 MiB Duration : 22 min 52 s Overall bit rate : 1 994 kb/s Writing application : Lavf58.33.100 Video ID : 1 Format : AVC Format/Info : Advanced Video Codec Format profile : High@L4 Format settings : CABAC / 4 Ref Frames Format settings, CABAC : Yes Format settings, Reference frames : 4 frames Codec ID : avc1 Codec ID/Info : Advanced Video Coding Duration : 22 min 51 s Bit rate : 1 861 kb/s Width : 1 920 pixels Height : 1 080 pixels Display aspect ratio : 16:9 Frame rate mode : Variable Frame rate : 23.976 (23976/1000) FPS Minimum frame rate : 23.974 FPS Maximum frame rate : 90 000.000 FPS Color space : YUV Chroma subsampling : 4:2:0 Bit depth : 8 bits Scan type : Progressive Bits/(Pixel*Frame) : 0.037 Stream size : 304 MiB (93%) Codec configuration box : avcC Audio ID : 2 Format : AAC LC SBR Format/Info : Advanced Audio Codec Low Complexity with Spectral Band Replication Commercial name : HE-AAC Format settings : Explicit Codec ID : mp4a-40-2 Duration : 22 min 52 s Bit rate mode : Constant Bit rate : 128 kb/s Channel(s) : 2 channels Channel layout : L R Sampling rate : 48.0 kHz Frame rate : 23.438 FPS (2048 SPF) Compression mode : Lossy Stream size : 20.9 MiB (6%) Language : Japanese Default : Yes Alternate group : 1

File list

  • [Switch-Raws] Beastars Season 2 - 01 [1080p WEB NF x264 AAC].mp4 (326.2 MiB)
hello. so you are waiting too, and in the meanwhile decided to check on this comment section. so predictable