[Nekomata] Aqours - Mitaiken HORIZON (BD 1920x1080 x264 10bit FLAC) [PTBR] [V2]

Category:
Date:
2021-01-13 19:34 UTC
Submitter:
Seeders:
1
File size:
920.2 MiB
Completed:
12
Info hash:
befbf8bb9838a02532bd8104f4ceecade854e0c4
Hello! Eu não faço ideia do que escrever aqui hoje, então... Fica só isso mesmo, boa tarde! Usamos como base a legenda em espanhol da ADF (uau, que novidade!). Clique [aqui](https://animedreamsubs.blogspot.com/) para acessar o site deles. Já a RAW, dessa vez foi a da Fumei (igual em Dazzling White Town). Clique [aqui](https://nyaa.si/view/1179783) para acessar o torrent da RAW no Nyaa. Nosso Discord: https://discord.nekomatasub.com/ AniList: [Gavuriiru](https://anilist.co/user/Gavuriiru) [LuckShiba](https://anilist.co/user/LuckShiba) Capa: ![uiui, delícia](https://media.discordapp.net/attachments/656140198219874335/797509705320366120/latest.png) Miniaturas: ![uiui, delícia](https://media.discordapp.net/attachments/656140198219874335/797508440440176690/NKMT_Aqours_-_Mitaiken_Horizon_BD_1920x1080_x264_Hi10P_FLAC_PTBR_EE30C5D7.mkv_thumbs.png) Mediainfo: ```Video ID : 3 Format : AVC Format/Info : Advanced Video Codec Format profile : High 10@L5.1 Format settings : CABAC / 16 Ref Frames Format settings, CABAC : Yes Format settings, Reference : 16 frames Codec ID : V_MPEG4/ISO/AVC Duration : 8 min 51 s Bit rate : 12.9 Mb/s Width : 1 920 pixels Height : 1 080 pixels Display aspect ratio : 16:9 Frame rate mode : Constant Frame rate : 23.976 (24000/1001) FPS Color space : YUV Chroma subsampling : 4:2:0 Bit depth : 10 bits Scan type : Progressive Bits/(Pixel*Frame) : 0.259 Stream size : 816 MiB (89%) Title : BD | 1080p Hi10P Writing library : x264 core 155 r2901 7d0ff22 Encoding settings : cabac=1 / ref=16 / deblock=1:-1:-1 / analyse=0x3:0x133 / me=umh / subme=10 / psy=1 / psy_rd=0.85:0.00 / mixed_ref=1 / me_range=24 / chroma_me=1 / trellis=2 / 8x8dct=1 / cqm=0 / deadzone=21,11 / fast_pskip=0 / chroma_qp_offset=-2 / threads=12 / lookahead_threads=3 / sliced_threads=0 / nr=0 / decimate=1 / interlaced=0 / bluray_compat=0 / constrained_intra=0 / bframes=16 / b_pyramid=2 / b_adapt=2 / b_bias=0 / direct=3 / weightb=1 / open_gop=0 / weightp=2 / keyint=240 / keyint_min=23 / scenecut=40 / intra_refresh=0 / rc_lookahead=100 / rc=crf / mbtree=1 / crf=15.0 / qcomp=0.75 / qpmin=0 / qpmax=81 / qpstep=4 / ip_ratio=1.40 / aq=3:0.80 Language : Japanese Default : Yes Forced : No Color range : Limited Matrix coefficients : BT.709 Audio ID : 4 Format : FLAC Format/Info : Free Lossless Audio Codec Codec ID : A_FLAC Duration : 8 min 51 s Bit rate mode : Variable Bit rate : 1 599 kb/s Channel(s) : 2 channels Channel layout : L R Sampling rate : 48.0 kHz Frame rate : 11.719 FPS (4096 SPF) Bit depth : 24 bits Compression mode : Lossless Stream size : 101 MiB (11%) Title : BD | FLAC 2.0 (48kHz/24bit) Writing library : libFLAC 1.3.3 (UTC 2019-08-04) Language : Japanese Default : Yes Forced : No Text #1 ID : 1 Format : ASS Codec ID : S_TEXT/ASS Codec ID/Info : Advanced Sub Station Alpha Duration : 8 min 51 s Bit rate : 20.3 kb/s Count of elements : 5859 Compression mode : Lossless Stream size : 1.28 MiB (0%) Title : Com efeitos Language : Portuguese Default : Yes Forced : No Text #2 ID : 2 Format : ASS Codec ID : S_TEXT/ASS Codec ID/Info : Advanced Sub Station Alpha Duration : 8 min 32 s Bit rate : 416 b/s Count of elements : 232 Compression mode : Lossless Stream size : 26.1 KiB (0%) Title : Sem efeitos Language : Portuguese Default : No Forced : No ```

File list

  • [NKMT] Aqours - Mitaiken HORIZON (BD 1920x1080 x264 Hi10P FLAC) [V2] [PTBR] [55E2894B].mkv (920.2 MiB)