[Nekomata] Aqours - Kimi no Kokoro wa Kagayaiteru kai (BD 1920x1080 x264 FLAC) [PTBR] [V2]

Category:
Date:
2021-01-13 19:31 UTC
Submitter:
Seeders:
2
File size:
441.9 MiB
Completed:
14
Info hash:
72a1f25b17187182fa45cf611423924ac9465fe9
Feliz ano novo! E pra começar o ano bem, tem que ser com Love Live! Então, comecemos com "Kimi no Kokoro wa Kagayaiteru kai?", das Aqours. Nosso servidor do Discord: https://discord.nekomatasub.com/ Capa: ![uiui, delícia](https://1.bp.blogspot.com/-g7se65AqxS0/X-9XG1hstYI/AAAAAAAAEzU/rqEbrfl3c-IkqclmBcWBu6rxFKEKTVTxwCLcBGAsYHQ/s16000/Kimi_no_Kokoro_wa_Kagayaiteru_kai_Cover.jpg "Capa") Miniaturas: ![ayay, delícia](https://1.bp.blogspot.com/-4WQf5mX_abU/X-9X63sRIZI/AAAAAAAAEzc/pissW1sDTCsslRIor0vX8L988PEK5oG9ACLcBGAsYHQ/s16000/%255BNKMT%255D%2BAqours%2B-%2BKimi%2Bno%2BKokoro%2Bwa%2BKagayaiteru%2Bkai%2B%255BBD%2B1920x1080%2Bx264%2BFLAC%255D%2B%255BPTBR%255D%2B%255BDB662EE9%255D.mkv_thumbs.png "Capa") Anilist: [Gavuriiru](https://anilist.co/user/Gavuriiru) [LuckShiba](https://anilist.co/user/LuckShiba) Mediainfo: ```Video ID : 3 Format : AVC Format/Info : Advanced Video Codec Format profile : High@L4.1 Format settings : CABAC / 4 Ref Frames Format settings, CABAC : Yes Format settings, Reference : 4 frames Codec ID : V_MPEG4/ISO/AVC Duration : 7 min 0 s Bit rate : 6 987 kb/s Width : 1 920 pixels Height : 1 080 pixels Display aspect ratio : 16:9 Frame rate mode : Constant Frame rate : 23.976 (24000/1001) FPS Color space : YUV Chroma subsampling : 4:2:0 Bit depth : 8 bits Scan type : Progressive Bits/(Pixel*Frame) : 0.141 Stream size : 350 MiB (79%) Title : Video x264 AVC 1080p Writing library : x264 core 148 Encoding settings : cabac=1 / ref=3 / deblock=1:0:0 / analyse=0x3:0x133 / me=umh / subme=9 / psy=1 / psy_rd=1.00:0.00 / mixed_ref=1 / me_range=32 / chroma_me=1 / trellis=1 / 8x8dct=1 / cqm=0 / deadzone=21,11 / fast_pskip=1 / chroma_qp_offset=-2 / threads=6 / lookahead_threads=1 / sliced_threads=0 / nr=0 / decimate=1 / interlaced=0 / bluray_compat=0 / constrained_intra=0 / bframes=3 / b_pyramid=2 / b_adapt=2 / b_bias=0 / direct=1 / weightb=1 / open_gop=0 / weightp=2 / keyint=250 / keyint_min=25 / scenecut=40 / intra_refresh=0 / rc=crf / mbtree=0 / crf=20.0 / qcomp=0.60 / qpmin=0 / qpmax=69 / qpstep=4 / ip_ratio=1.40 / pb_ratio=1.30 / aq=1:1.00 Language : Japanese Default : Yes Forced : No Audio ID : 4 Format : FLAC Format/Info : Free Lossless Audio Codec Codec ID : A_FLAC Duration : 7 min 0 s Bit rate mode : Variable Bit rate : 1 796 kb/s Channel(s) : 2 channels Channel layout : L R Sampling rate : 48.0 kHz Frame rate : 10.418 FPS (4607 SPF) Bit depth : 24 bits Compression mode : Lossless Stream size : 90.0 MiB (20%) Title : Audio FLAC 2.0 Language : Japanese Default : Yes Forced : No Text #1 ID : 1 Format : ASS Codec ID : S_TEXT/ASS Codec ID/Info : Advanced Sub Station Alpha Duration : 6 min 58 s Bit rate : 25.2 kb/s Count of elements : 5331 Compression mode : Lossless Stream size : 1.25 MiB (0%) Title : Com efeitos Language : Portuguese Default : Yes Forced : No Text #2 ID : 2 Format : ASS Codec ID : S_TEXT/ASS Codec ID/Info : Advanced Sub Station Alpha Duration : 5 min 19 s Bit rate : 466 b/s Count of elements : 120 Compression mode : Lossless Stream size : 18.2 KiB (0%) Title : Sem efeitos Language : Portuguese Default : No Forced : No```

File list

  • [NKMT] Aqours - Kimi no Kokoro wa Kagayaiteru kai [BD 1920x1080 x264 FLAC] [PTBR] [99C9E05C].mkv (441.9 MiB)