[Nekomata] HAPPY PARTY TRAIN - Aqours (BD 1920x1080 x264 FLAC) [PTBR] [V2]

Category:
Date:
2021-01-13 19:23 UTC
Submitter:
Seeders:
2
File size:
545.4 MiB
Completed:
9
Info hash:
fce91caef1b0af66085e8b982855dd0ae8254054
Oioioioi! Aqui tá mais uma coisa que tá pronta já faz um tempo, mas só postei agora pq né, tem alguma coisa de errado comigo. Mas, vamos lá! Mais uma vez usamos como base a legenda da ADF, obrigado mais uma vez! Já a RAW, foi a da(o) Mashin. Nosso servidor do Discord: https://discord.gg/zaZCRwB Capa: ![uiui, delícia](https://cdn.discordapp.com/attachments/579796189361340447/793162008598020096/R-12255407-1531524927-2767.png "Capa") Miniaturas: ![ayay, delícia](https://cdn.discordapp.com/attachments/579796189361340447/793162034350129192/NKMT_Aqours_-_HAPPY_PARTY_TRAIN_BD_1920x1080_x264_FLAC_PTBR_37F2AC66.mkv_thumbs.jpg "Capa") Anilist: [Gavuriiru](https://anilist.co/user/Gavuriiru) [LuckShiba](https://anilist.co/user/LuckShiba) Mediainfo: ```Video ID : 3 Format : AVC Format/Info : Advanced Video Codec Format profile : Main@L4.1 Format settings : CABAC / 4 Ref Frames Format settings, CABAC : Yes Format settings, Reference : 4 frames Codec ID : V_MPEG4/ISO/AVC Duration : 8 min 19 s Bit rate : 7 474 kb/s Width : 1 920 pixels Height : 1 080 pixels Display aspect ratio : 16:9 Frame rate mode : Constant Frame rate : 23.976 (24000/1001) FPS Color space : YUV Chroma subsampling : 4:2:0 Bit depth : 8 bits Scan type : Progressive Bits/(Pixel*Frame) : 0.150 Stream size : 445 MiB (82%) Writing library : x264 core 148 r2708 86b7198 Encoding settings : cabac=1 / ref=3 / deblock=1:0:0 / analyse=0x1:0x111 / me=umh / subme=9 / psy=1 / psy_rd=1.00:0.00 / mixed_ref=1 / me_range=32 / chroma_me=1 / trellis=1 / 8x8dct=0 / cqm=0 / deadzone=21,11 / fast_pskip=1 / chroma_qp_offset=-2 / threads=10 / lookahead_threads=1 / sliced_threads=0 / nr=0 / decimate=1 / interlaced=0 / bluray_compat=0 / constrained_intra=0 / bframes=3 / b_pyramid=2 / b_adapt=1 / b_bias=0 / direct=1 / weightb=1 / open_gop=0 / weightp=2 / keyint=240 / keyint_min=25 / scenecut=40 / intra_refresh=0 / rc_lookahead=40 / rc=crf / mbtree=1 / crf=17.0 / qcomp=0.60 / qpmin=0 / qpmax=69 / qpstep=4 / ip_ratio=1.40 / aq=1:1.00 Default : Yes Forced : No Color range : Limited Color primaries : BT.709 Transfer characteristics : BT.709 Matrix coefficients : BT.709 Audio ID : 4 Format : FLAC Format/Info : Free Lossless Audio Codec Codec ID : A_FLAC Duration : 8 min 19 s Bit rate mode : Variable Bit rate : 1 652 kb/s Channel(s) : 2 channels Channel layout : L R Sampling rate : 48.0 kHz Frame rate : 10.417 FPS (4608 SPF) Bit depth : 24 bits Compression mode : Lossless Stream size : 98.4 MiB (18%) Title : Stereo Default : Yes Forced : No Text #1 ID : 1 Format : ASS Codec ID : S_TEXT/ASS Codec ID/Info : Advanced Sub Station Alpha Duration : 8 min 18 s Bit rate : 16.0 kb/s Count of elements : 4296 Compression mode : Lossless Stream size : 971 KiB (0%) Title : Com efeitos Language : Portuguese Default : Yes Forced : No Text #2 ID : 2 Format : ASS Codec ID : S_TEXT/ASS Codec ID/Info : Advanced Sub Station Alpha Duration : 6 min 5 s Bit rate : 325 b/s Count of elements : 113 Compression mode : Lossless Stream size : 14.5 KiB (0%) Title : Sem efeitos Language : Portuguese Default : No Forced : No```

File list

  • [NKMT] Aqours - HAPPY PARTY TRAIN [BD 1920x1080 x264 FLAC] [V2] [PTBR] [932D3BBA].mkv (545.4 MiB)