Nanatsu no Taizai Fundo no Shinpan - 01 [1080p WEB NF x264 AAC].mp4

Category:
Date:
2021-01-13 16:39 UTC
Submitter:
Anonymous
Seeders:
13
Information:
Leechers:
0
File size:
452.3 MiB
Completed:
71
Info hash:
ddc6ebcf9c67fb355c21eb02958b9d762fbf7b05
Format : MPEG-4 Format profile : Base Media Codec ID : isom (isom/iso2/avc1/mp41/iso6/piff) File size : 452 MiB Duration : 24 min 12 s Overall bit rate mode : Variable Overall bit rate : 2 613 kb/s Movie name : From Purgatory Comment : Ban searches purgatory for Meliodas. King, Deriri and the others head to Heaven's Theater to rescue Elizabeth, who's been abducted by Estarossa. Video ID : 1 Format : AVC Format/Info : Advanced Video Codec Format profile : High@L4 Format settings : CABAC / 4 Ref Frames Format settings, CABAC : Yes Format settings, Reference : 4 frames Codec ID : avc1 Codec ID/Info : Advanced Video Coding Duration : 24 min 11 s Bit rate mode : Variable Bit rate : 2 472 kb/s Maximum bit rate : 20.0 Mb/s Width : 1 920 pixels Height : 1 080 pixels Display aspect ratio : 16:9 Frame rate mode : Constant Frame rate : 23.976 (24000/1001) FPS Color space : YUV Chroma subsampling : 4:2:0 Bit depth : 8 bits Scan type : Progressive Bits/(Pixel*Frame) : 0.050 Stream size : 428 MiB (95%) Writing library : x264 core 148 r2722 1b0121b Encoding settings : cabac=1 / ref=4 / deblock=1:0:0 / analyse=0x3:0x111 / me=umh / subme=10 / psy=1 / psy_rd=1.00:0.00 / mixed_ref=1 / me_range=120 / chroma_me=1 / trellis=2 / 8x8dct=1 / cqm=0 / deadzone=21,11 / fast_pskip=1 / chroma_qp_offset=-2 / threads=8 / lookahead_threads=2 / sliced_threads=0 / nr=0 / decimate=1 / interlaced=0 / bluray_compat=0 / stitchable=1 / constrained_intra=0 / bframes=16 / b_pyramid=2 / b_adapt=2 / b_bias=0 / direct=3 / weightb=1 / open_gop=0 / weightp=2 / keyint=240 / keyint_min=121 / scenecut=0 / intra_refresh=0 / rc_lookahead=240 / rc=crf / mbtree=1 / crf=19.0 / qcomp=0.50 / qpmin=6 / qpmax=51 / qpstep=4 / vbv_maxrate=20000 / vbv_bufsize=25000 / crf_max=0.0 / nal_hrd=vbr / filler=0 / ip_ratio=1.40 / aq=1:0.80 Encoded date : UTC 2021-01-13 12:06:54 Tagged date : UTC 2021-01-13 12:06:54 Codec configuration box : avcC Audio ID : 2 Format : AAC LC SBR Format/Info : Advanced Audio Codec Low Complexity with Spectral Band Replication Commercial name : HE-AAC Format settings : Explicit Codec ID : mp4a-40-2 Duration : 24 min 12 s Bit rate mode : Variable Bit rate : 132 kb/s Maximum bit rate : 198 kb/s Channel(s) : 2 channels Channel layout : L R Sampling rate : 48.0 kHz Frame rate : 23.438 FPS (2048 SPF) Compression mode : Lossy Stream size : 22.2 MiB (5%) Language : Japanese Encoded date : UTC 2021-01-13 12:06:54 Tagged date : UTC 2021-01-13 12:06:54 Text ID : 3 Format : VobSub Codec ID : mp4s-E0 Codec ID/Info : The same subtitle format used on DVDs Duration : 24 min 10 s Bit rate mode : Variable Bit rate : 8 722 b/s Stream size : 1.51 MiB (0%) Title : Japanese Language : Japanese Forced : No Encoded date : UTC 2021-01-13 12:06:54 Tagged date : UTC 2021-01-13 12:06:54

File list

  • Nanatsu no Taizai Fundo no Shinpan - 01 [1080p WEB NF x264 AAC].mp4 (452.3 MiB)
>high profile instead of main profile 0/10
>AAC Where's EAC-3?
> Where’s EAC-3? AAC sounds the exact same as E-AC3 while it's a more common codec, why would you want that?
why would reencoding the audio for just common codec ?
@everyone This is how the video actually look: [Right-Click > Open link in a new tab](https://cdn.discordapp.com/attachments/486174820166533120/799564949470314527/vlcsnap-2021-01-15-10h58m03s832.png "TV Source") https://nyaa.si/view/1326894 [Right-Click > Open link in a new tab](https://cdn.discordapp.com/attachments/486174820166533120/799564954792886322/Nanatsu.no.Taizai.Fundo.no.Shinpan.S04.E01.1080p.WEB-DL.NF.DD2.0-WKS.mkv_snapshot_03.32_2021.01.15_0.png "Netflix Source") https://nyaa.si/view/1327523