[Switch-Raws] Nanatsu no Taizai Fundo no Shinpan - 01 [1080p WEB NF x264 AAC].mp4

Category:
Date:
2021-01-13 12:18 UTC
Submitter:
Seeders:
51
Information:
No information.
Leechers:
0
File size:
345.3 MiB
Completed:
391
Info hash:
92d0e9ae3be561999da005ada6321dc39e7cd382
![alt text](https://i.postimg.cc/ZYLZJFwM/rsz-logo-without-anime-without-logo.jpg "Logo") ___ **Anime name >** Nanatsu no Taizai Fundo no Shinpan **Source >** Netflix **Subs >** None **Audio >** Japanese ___ ![alt text](https://i.postimg.cc/C5t4WnsM/vlcsnap-2021-01-13-14h09m35s141.png "Screenshot #1") ![alt text](https://i.postimg.cc/mZ6VcKWx/vlcsnap-2021-01-13-14h09m40s722.png "Screenshot #2") General Complete name : [SwitchEncode] Nanatsu no Taizai Fundo no Shinpan - 01 [1080p WEB NF x264 AAC].mp4 Format : MPEG-4 Format profile : Base Media Codec ID : isom (isom/iso2/avc1/mp41) File size : 345 MiB Duration : 24 min 12 s Overall bit rate : 1 995 kb/s Writing application : Lavf58.33.100 Video ID : 1 Format : AVC Format/Info : Advanced Video Codec Format profile : High@L4 Format settings : CABAC / 4 Ref Frames Format settings, CABAC : Yes Format settings, Reference frames : 4 frames Codec ID : avc1 Codec ID/Info : Advanced Video Coding Duration : 24 min 11 s Bit rate : 1 862 kb/s Width : 1 920 pixels Height : 1 080 pixels Display aspect ratio : 16:9 Frame rate mode : Variable Frame rate : 23.976 (23976/1000) FPS Minimum frame rate : 23.974 FPS Maximum frame rate : 90 000.000 FPS Color space : YUV Chroma subsampling : 4:2:0 Bit depth : 8 bits Scan type : Progressive Bits/(Pixel*Frame) : 0.037 Stream size : 322 MiB (93%) Codec configuration box : avcC Audio ID : 2 Format : AAC LC SBR Format/Info : Advanced Audio Codec Low Complexity with Spectral Band Replication Commercial name : HE-AAC Format settings : Explicit Codec ID : mp4a-40-2 Duration : 24 min 12 s Bit rate mode : Constant Bit rate : 128 kb/s Channel(s) : 2 channels Channel layout : L R Sampling rate : 48.0 kHz Frame rate : 23.438 FPS (2048 SPF) Compression mode : Lossy Stream size : 22.2 MiB (6%) Language : Japanese Default : Yes Alternate group : 1

File list

  • [SwitchEncode] Nanatsu no Taizai Fundo no Shinpan - 01 [1080p WEB NF x264 AAC].mp4 (345.3 MiB)
@everyone This is how the video actually look: [Right-Click > Open link in a new tab](https://cdn.discordapp.com/attachments/486174820166533120/799564949470314527/vlcsnap-2021-01-15-10h58m03s832.png "TV Source") https://nyaa.si/view/1326894 [Right-Click > Open link in a new tab](https://cdn.discordapp.com/attachments/486174820166533120/799564954792886322/Nanatsu.no.Taizai.Fundo.no.Shinpan.S04.E01.1080p.WEB-DL.NF.DD2.0-WKS.mkv_snapshot_03.32_2021.01.15_0.png "Netflix Source") https://nyaa.si/view/1327523

SwitchEncode (uploader)

User
@ShinMugetsu2000 Something is wrong with your media player. This is how my video LOOKS like.(I don't know why your last screenshot is grey af) https://i.postimg.cc/v8KrN98z/vlcsnap-2021-01-15-17h35m43s385.png And also, my video is encoded to smaller file size rather than big ones. This is why I put the title to "WEB" rather than "WEB-DL" for not misleading it. I don't know why you trashing my source for...