[naiyas] Irozuku Sekai no Ashita kara (Iroduku The World in Colors) - [BD 1080p HEVC10 FLAC]

Category:
Date:
2021-01-13 08:51 UTC
Submitter:
Seeders:
7
Information:
Leechers:
2
File size:
13.1 GiB
Completed:
100
Info hash:
6a7ec21b66349bbdb257b7477d77c34d87a5e7bf
**VCB-Studio + GJM subs.** ``` General Unique ID : 78580086206160230947630447631923429336 (0x3B1DF95EFDB157228FA1B2E2F8F43FD8) Complete name : [naiyas] Irozuku Sekai no Ashita kara (Iroduku The World in Colors) - S01E01.mkv Format : Matroska Format version : Version 4 File size : 1 015 MiB Duration : 24 min 7 s Overall bit rate mode : Variable Overall bit rate : 5 881 kb/s Movie name : [naiyas] Irozuku Sekai no Ashita kara (Iroduku The World in Colors) - S01E01 Encoded date : UTC 2021-01-12 06:03:48 Writing application : mkvmerge v51.0.0 ('I Wish') 64-bit Writing library : libebml v1.4.0 + libmatroska v1.6.2 Attachments : FELTREGULAR.TTF / FOTGAKUMARUGOTHICPROSTRP-B.OTF / FOTSEURATPRONSTRP-DEMIBOLD.OTF / FOTSEURATPRONSTRP-EXTRABOLD.OTF / GANDHISANS-BOLD.OTF / GANDHISANS-BOLDITALIC.OTF / IWAMINPROEN-BD.OTF / IWAMINPRO-MD-KAMI.TTF / IWATAMINCHOOLDPRO-TR-BOLD.TTF / KOZUKAGOTHICPR6NH.TTF / KOZUKAGOTHICPR6NR.TTF / THERIFLEMAN.TTF / WCRHESUSABTA.OTF / WCRHESUSBBTA.OTF / ALEX_BOLD.TTF / BARAMOND.TTF / BARAMONDBOLD.TTF / CHRISTOPHERHAND.TTF / CLEARFACEGOTHICBQ-REGULAR.TTF Video ID : 1 Format : HEVC Format/Info : High Efficiency Video Coding Format profile : Main 10@L4@High Codec ID : V_MPEGH/ISO/HEVC Duration : 24 min 7 s Bit rate : 5 282 kb/s Width : 1 920 pixels Height : 1 080 pixels Display aspect ratio : 16:9 Frame rate mode : Constant Frame rate : 23.976 (24000/1001) FPS Color space : YUV Chroma subsampling : 4:2:0 Bit depth : 10 bits Bits/(Pixel*Frame) : 0.106 Stream size : 912 MiB (90%) Writing library : x265 2.9+2-7e978ed93d60:[Windows][MSVC 1915][64 bit] 10bit Encoding settings : cpuid=1111039 / frame-threads=4 / numa-pools=28 / wpp / no-pmode / no-pme / no-psnr / no-ssim / log-level=2 / input-csp=1 / input-res=1920x1080 / interlace=0 / total-frames=0 / level-idc=0 / high-tier=1 / uhd-bd=0 / ref=4 / no-allow-non-conformance / no-repeat-headers / annexb / no-aud / no-hrd / info / hash=0 / no-temporal-layers / no-open-gop / min-keyint=1 / keyint=360 / gop-lookahead=0 / bframes=8 / b-adapt=2 / b-pyramid / bframe-bias=0 / rc-lookahead=70 / lookahead-slices=4 / scenecut=40 / radl=0 / no-intra-refresh / ctu=32 / min-cu-size=8 / rect / no-amp / max-tu-size=32 / tu-inter-depth=2 / tu-intra-depth=2 / limit-tu=4 / rdoq-level=2 / dynamic-rd=0.00 / no-ssim-rd / signhide / no-tskip / nr-intra=0 / nr-inter=0 / no-constrained-intra / no-strong-intra-smoothing / max-merge=3 / limit-refs=2 / limit-modes / me=3 / subme=4 / merange=44 / temporal-mvp / weightp / weightb / no-analyze-src-pics / deblock=-2:-2 / no-sao / no-sao-non-deblock / rd=4 / no-early-skip / rskip / no-fast-intra / no-tskip-fast / no-cu-lossless / b-intra / no-splitrd-skip / rdpenalty=0 / psy-rd=1.40 / psy-rdoq=1.00 / no-rd-refine / no-lossless / cbqpoffs=-3 / crqpoffs=-3 / rc=crf / crf=14.5 / qcomp=0.65 / qpstep=4 / stats-write=0 / stats-read=0 / vbv-maxrate=30000 / vbv-bufsize=36000 / vbv-init=0.9 / crf-max=28.0 / crf-min=0.0 / ipratio=1.40 / pbratio=1.20 / aq-mode=3 / aq-strength=0.80 / cutree / zone-count=0 / no-strict-cbr / qg-size=16 / no-rc-grain / qpmax=69 / qpmin=0 / no-const-vbv / sar=0 / overscan=0 / videoformat=5 / range=0 / colorprim=2 / transfer=2 / colormatrix=1 / chromaloc=0 / display-window=0 / max-cll=0,0 / min-luma=0 / max-luma=1023 / log2-max-poc-lsb=8 / vui-timing-info / vui-hrd-info / slices=1 / no-opt-qp-pps / no-opt-ref-list-length-pps / no-multi-pass-opt-rps / scenecut-bias=0.05 / no-opt-cu-delta-qp / no-aq-motion / no-hdr / no-hdr-opt / no-dhdr10-opt / no-idr-recovery-sei / analysis-reuse-level=5 / scale-factor=0 / refine-intra=0 / refine-inter=0 / refine-mv=0 / no-limit-sao / ctu-info=0 / no-lowpass-dct / refine-mv-type=0 / copy-pic=1 / max-ausize-factor=1.0 / no-dynamic-refine / no-single-sei Language : Japanese Default : Yes Forced : No Color range : Limited Matrix coefficients : BT.709 Audio ID : 2 Format : FLAC Format/Info : Free Lossless Audio Codec Codec ID : A_FLAC Duration : 24 min 7 s Bit rate mode : Variable Bit rate : 552 kb/s Channel(s) : 2 channels Channel layout : L R Sampling rate : 48.0 kHz Frame rate : 11.719 FPS (4096 SPF) Bit depth : 16 bits Compression mode : Lossless Stream size : 95.2 MiB (9%) Writing library : libFLAC 1.2.1 (UTC 2007-09-17) Language : Japanese Default : Yes Forced : No Text ID : 3 Format : ASS Codec ID : S_TEXT/ASS Codec ID/Info : Advanced Sub Station Alpha Duration : 23 min 55 s Bit rate : 3 166 b/s Count of elements : 3570 Compression mode : Lossless Stream size : 555 KiB (0%) Language : English Default : Yes Forced : No Menu 00:00:00.000 : :Chapter 01 00:18:24.979 : :Chapter 02 00:22:21.966 : :Chapter 03 00:23:51.930 : :Chapter 04 ``` Nothing special this release, just a remux enjoy.

File list

  • [naiyas] Irozuku Sekai no Ashita kara (Iroduku The World in Colors) - [BD 1080p HEVC10 FLAC]
    • CDs
    • NCOPED
      • [naiyas] Irozuku Sekai no Ashita kara (Iroduku The World in Colors) - NCED.mkv (57.0 MiB)
      • [naiyas] Irozuku Sekai no Ashita kara (Iroduku The World in Colors) - NCOP.mkv (104.8 MiB)
    • [naiyas] Irozuku Sekai no Ashita kara (Iroduku The World in Colors) - S01E01.mkv (1015.2 MiB)
    • [naiyas] Irozuku Sekai no Ashita kara (Iroduku The World in Colors) - S01E02.mkv (774.6 MiB)
    • [naiyas] Irozuku Sekai no Ashita kara (Iroduku The World in Colors) - S01E03.mkv (961.1 MiB)
    • [naiyas] Irozuku Sekai no Ashita kara (Iroduku The World in Colors) - S01E04.mkv (885.7 MiB)
    • [naiyas] Irozuku Sekai no Ashita kara (Iroduku The World in Colors) - S01E05.mkv (885.9 MiB)
    • [naiyas] Irozuku Sekai no Ashita kara (Iroduku The World in Colors) - S01E06.mkv (1.2 GiB)
    • [naiyas] Irozuku Sekai no Ashita kara (Iroduku The World in Colors) - S01E07.mkv (895.6 MiB)
    • [naiyas] Irozuku Sekai no Ashita kara (Iroduku The World in Colors) - S01E08.mkv (909.4 MiB)
    • [naiyas] Irozuku Sekai no Ashita kara (Iroduku The World in Colors) - S01E09.mkv (826.5 MiB)
    • [naiyas] Irozuku Sekai no Ashita kara (Iroduku The World in Colors) - S01E10.mkv (1.0 GiB)
    • [naiyas] Irozuku Sekai no Ashita kara (Iroduku The World in Colors) - S01E11.mkv (861.7 MiB)
    • [naiyas] Irozuku Sekai no Ashita kara (Iroduku The World in Colors) - S01E12.mkv (944.8 MiB)
    • [naiyas] Irozuku Sekai no Ashita kara (Iroduku The World in Colors) - S01E13.mkv (1.1 GiB)
@naiyas Do you have plans to remux any of the following VCB-Studio releases: Fate/Stay Night (2006, Studio Deen) Fate/Zero Fate/kaleid liner Prisma Illya (+Movie) Carnival Phantasm

naiyas (uploader)

User
@Alcuseltzer this [Fate/Stay Night (2006, Studio Deen)](https://nyaa.si/view/975900) Fate/Zero Fate/kaleid liner Prisma Illya (+Movie) Carnival Phantasm still working
Thank you for this :)