アイドルマスター シンデレラガールズ劇場 Extra Stage 第35話.mkv

Category:
Date:
2021-01-12 16:34 UTC
Submitter:
Seeders:
1
Information:
No information.
Leechers:
1
File size:
33.8 MiB
Completed:
39
Info hash:
4b445e5729b5b2fea1b170b9d44a0dec1efe097d
Video ID : 1 Format : AVC Format/Info : Advanced Video Codec Format profile : High@L4.2 Format settings : CABAC / 3 Ref Frames Format settings, CABAC : Yes Format settings, Reference : 3 frames Codec ID : V_MPEG4/ISO/AVC Duration : 1 min 53 s Bit rate : 2 365 kb/s Width : 1 920 pixels Height : 910 pixels Display aspect ratio : 2.110 Frame rate mode : Constant Frame rate : 60.000 FPS Color space : YUV Chroma subsampling : 4:2:0 Bit depth : 8 bits Scan type : Progressive Bits/(Pixel*Frame) : 0.023 Stream size : 32.0 MiB (95%) Default : Yes Forced : No Color range : Limited Color primaries : BT.601 PAL Transfer characteristics : BT.709 Matrix coefficients : BT.601 Audio ID : 2 Format : AAC LC Format/Info : Advanced Audio Codec Low Complexity Codec ID : A_AAC-2 Duration : 1 min 53 s Bit rate : 128 kb/s Channel(s) : 2 channels Channel layout : L R Sampling rate : 44.1 kHz Frame rate : 43.066 FPS (1024 SPF) Compression mode : Lossy Stream size : 1.73 MiB (5%) Language : Japanese Default : Yes Forced : No

File list

  • アイドルマスター シンデレラガールズ劇場 Extra Stage 第35話.mkv (33.8 MiB)