[naiyas] Shingeki no Kyojin - 61 -> 64 [WebRip 1080p HEVC-10bit AAC]

Category:
Date:
2021-01-12 12:43 UTC
Submitter:
Seeders:
10
Information:
Leechers:
0
File size:
2.0 GiB
Completed:
287
Info hash:
4603b63d6cbc843c1d9f44c3444c43f2b24d7255
``` Updated Subs from DDY & Better audio AAC-LC 48kHz @303kb/s ``` ``` General Unique ID : 322074294871642015569002461149455971575 (0xF24D40BCD0554D64519DDB7EB5B3F4F7) Complete name : [naiyas] Shingeki no Kyojin - 61 [WebRip 1080p HEVC-10bit AAC].mkv Format : Matroska Format version : Version 4 File size : 545 MiB Duration : 23 min 55 s Overall bit rate : 3 183 kb/s Movie name : [naiyas] Shingeki no Kyojin (The Final Season) - 61 - A Night on the Train Encoded date : UTC 2021-01-12 12:27:13 Writing application : mkvmerge v51.0.0 ('I Wish') 64-bit Writing library : libebml v1.4.0 + libmatroska v1.6.2 Attachments : A-OTF Ryumin Pr5 B-KL.TI2J01E4.otf / A-OTF Ryumin Pr5 EH-KL.EIV2MSEV.otf / 方正准圆_GBK.319OJLQL.ttf / 方正准雅宋_GBK.S6ELVMUO.ttf / 方正粗雅宋_GBK.AHKU9K3N.ttf / CLEARFACESSIBOLD.TTF / GAR-A-MONDTALL-LIGHT.TTF / KINESISSTD-BLACKITALIC.OTF / AGARAMONDPRO-REGULAR.OTF / ANGIE-BOLD.TTF / ANGIE-BOLDITALIC.TTF / BSOD.TTF Video ID : 1 Format : HEVC Format/Info : High Efficiency Video Coding Format profile : Main 10@L4@High Codec ID : V_MPEGH/ISO/HEVC Duration : 23 min 55 s Bit rate : 2 723 kb/s Width : 1 920 pixels Height : 1 080 pixels Display aspect ratio : 16:9 Frame rate mode : Constant Frame rate : 23.976 (24000/1001) FPS Color space : YUV Chroma subsampling : 4:2:0 (Type 0) Bit depth : 10 bits Bits/(Pixel*Frame) : 0.055 Stream size : 466 MiB (86%) Writing library : x265 3.3+5-g4a0cef17d+32:[Windows][GCC 9.3.0][64 bit] Asuna 10bit+8bit+12bit Encoding settings : rc=crf / crf=18.0000 / qcomp=0.65 / qpstep=4 / stats-write=0 / stats-read=0 / vbv-maxrate=20000 / vbv-bufsize=30000 / vbv-init=0.9 / crf-max=0.0 / crf-min=0.0 / no-lossless / no-cu-lossless / aq-mode=2 / aq-strength=0.90 / cbqpoffs=-2 / crqpoffs=-2 / ipratio=1.40 / pbratio=1.20 / psy-rd=1.50 / psy-rdoq=0.80 / deblock=-1:-1 / ref=5 / limit-refs=1 / limit-modes / bframes=8 / b-adapt=2 / bframe-bias=0 / b-pyramid / b-intra / weightp / weightb / min-keyint=1 / max-keyint=360 / rc-lookahead=80 / gop-lookahead=0 / scenecut=40 / hist-scenecut=0 / radl=0 / max-cu-size=32 / min-cu-size=8 / me=3 / subme=4 / merange=57 / rdoq-level=1 / rd=4 / rdpenalty=0 / dynamic-rd=0.00 / no-rd-refine / ----- / cutree / no-sao / no-rect / no-amp / no-open-gop / wpp / no-pmode / no-pme / no-psnr / no-ssim / nr-intra=0 / nr-inter=0 / no-constrained-intra / no-strong-intra-smoothing / max-tu-size=32 / tu-inter-depth=3 / tu-intra-depth=3 / limit-tu=4 / qg-size=8 / qpmax=69 / qpmin=0 / ----- / cpuid=1111039 / frame-threads=4 / numa-pools=16 / log-level=2 / input-csp=1 / input-res=1920x1080 / interlace=0 / level-idc=0 / high-tier=1 / uhd-bd=0 / no-allow-non-conformance / no-repeat-headers / no-aud / no-hrd / info / hash=0 / no-temporal-layers / lookahead-slices=0 / no-splice / no-intra-refresh / no-ssim-rd / signhide / no-tskip / max-merge=4 / temporal-mvp / no-frame-dup / no-hme / no-analyze-src-pics / no-sao-non-deblock / selective-sao=0 / no-early-skip / rskip / no-fast-intra / no-tskip-fast / no-splitrd-skip / zone-count=0 / no-strict-cbr / no-rc-grain / no-const-vbv / sar=0 / overscan=0 / videoformat=5 / range=0 / colorprim=1 / transfer=1 / colormatrix=1 / chromaloc=1 / chromaloc-top=0 / chromaloc-bottom=0 / display-window=0 / cll=0,0 / min-luma=0 / max-luma=1023 / log2-max-poc-lsb=8 / vui-timing-info / vui-hrd-info / slices=1 / no-opt-qp-pps / no-opt-ref-list-length-pps / no-multi-pass-opt-rps / scenecut-bias=0.05 / hist-threshold=0.01 / no-opt-cu-delta-qp / no-aq-motion / no-hdr10 / no-hdr10-opt / no-dhdr10-opt / no-idr-recovery-sei / analysis-reuse-level=0 / analysis-save-reuse-level=0 / analysis-load-reuse-level=0 / scale-factor=0 / refine-intra=0 / refine-inter=0 / refine-mv=1 / refine-ctu-distortion=0 / no-limit-sao / ctu-info=0 / no-lowpass-dct / refine-analysis-type=0 / copy-pic=1 / max-ausize-factor=1.0 / no-dynamic-refine / no-single-sei / no-hevc-aq / no-svt / no-field / qp-adaptation-range=1.00 / no-scenecut-aware-qpconformance-window-offsets / right=0 / bottom=0 Language : Japanese Default : Yes Forced : No Color range : Limited Color primaries : BT.709 Transfer characteristics : BT.709 Matrix coefficients : BT.709 Audio ID : 2 Format : AAC LC Format/Info : Advanced Audio Codec Low Complexity Codec ID : A_AAC-2 Duration : 23 min 55 s Bit rate : 303 kb/s Channel(s) : 2 channels Channel layout : L R Sampling rate : 48.0 kHz Frame rate : 46.875 FPS (1024 SPF) Compression mode : Lossy Stream size : 51.8 MiB (10%) Language : Japanese Default : Yes Forced : No Text ID : 3 Format : ASS Codec ID : S_TEXT/ASS Codec ID/Info : Advanced Sub Station Alpha Duration : 23 min 53 s Bit rate : 145 kb/s Count of elements : 17749 Compression mode : Lossless Stream size : 24.7 MiB (5%) Language : English Default : Yes Forced : No Menu 00:00:00.033 : en:Intro 00:02:54.020 : en:OP 00:04:23.990 : en:Part A 00:12:32.980 : en:Part B 00:22:09.970 : en:ED 00:23:39.980 : en:Preview ```

File list

  • [naiyas] Shingeki no Kyojin - [WebRip 1080p HEVC-10bit AAC]
    • [naiyas] Shingeki no Kyojin - 61 [WebRip 1080p HEVC-10bit AAC].mkv (544.6 MiB)
    • [naiyas] Shingeki no Kyojin - 62 [WebRip 1080p HEVC-10bit AAC].mkv (557.7 MiB)
    • [naiyas] Shingeki no Kyojin - 63 [WebRip 1080p HEVC-10bit AAC].mkv (481.0 MiB)
    • [naiyas] Shingeki no Kyojin - 64 [WebRip 1080p HEVC-10bit AAC].mkv (436.1 MiB)
By far the best releases for the final season of SNK. I really hope you continue doing these. These releases are really much better then others, especially the audio quality and H265 and improved subs. 10/10

naiyas (uploader)

User
@deeezly yeah I'll gonna continue this with Dual Audio + CC