[neoHEVC] Kakushigoto [BD 1080p x265 HEVC AAC] [Dual Audio]

Category:
Date:
2021-01-07 22:51 UTC
Submitter:
Seeders:
14
Information:
Leechers:
1
File size:
3.6 GiB
Completed:
384
Info hash:
37e1ff46bbda7ca76e98303ede48b17d8784dedd
![](https://i.imgur.com/RBlGp48.png) *Join **[Discord](https://discord.gg/KYKYZUh)** for Current Projects, Encode-Requests and Seed-Request in case of no available seeds.* **Kakushigoto** *with `Dual Audio (Jpn/Eng)` and `Eng Subs` in `BD 1080p HEVC`* Reencode of [UCCUSS] (x264 AVC FLAC) to (x265 HEVC AAC) with added English audio tracks from [Golumpa] and English subtitles from [Erai-Raws (CR/Funi)]. *Side Note: I created additional [Signs & Songs] subtitle tracks from the [Dialog] subtitle tracks to go with the added English audio tracks.* ![](https://i.imgur.com/4iegWLL.png) **[Trailer](https://www.youtube.com/watch?v=wZXUgCO4Q9o)** ![](https://i.imgur.com/3UxGuWB.png) ![](https://i.imgur.com/ZCtSawZ.png) **[MyAnimeList](https://myanimelist.net/anime/40716/Kakushigoto_TV)** --- **Language Options** I included two simple scripts that you can apply to these files to do the following (Windows only): 1. Change [Default Tracks]: Switches default tracks to *A:Japanese S:Dialog* 2. Make [Single Audio]: Throws out *English audio* and *Signs&Songs subtitles* tracks To apply these put all the video files into the *Language Options* folder and run the .bat file. <1> Changes existing files, <2> creates new ones in the *output* folder. --- **Patches** ? **[Episode 7 Subfix](https://drive.google.com/drive/folders/1s-hLfQMQqQRQMmNl8u7FMWZnuvgL7szw?usp=sharing)** --- **Synopsis** Kakushi Gotou is a somewhat popular manga artist whose works are known for inappropriate content. Because of this raunchiness, when his daughter Hime was born, he vowed to keep his profession hidden from her, believing that she will be disillusioned if she finds out. This paranoia-induced belief leads Kakushi into hectic situations. Despite being a single father, he does his best and often resorts to extreme ends just to protect his secret, such as guising as a salaryman every day or holding emergency drills in case Hime somehow finds her way to his workplace. Kakushigoto tells the story of a father and daughter living side by side, maintaining their peaceful existence as the father attempts to preserve the status quo. However, there is a saying: "there are no secrets that time cannot reveal." In time, Hime must learn the reality behind the things she took for granted as she grew up. ![](https://i.imgur.com/ZEIWovN.png) --- **Comparison** *Open links, toggle with mouseclick and check title.* [![](https://i.imgur.com/TsjZga8.png)](https://slow.pics/c/NFMr4eJP) [![](https://i.imgur.com/wB3O239.png)](https://slow.pics/c/1tT488Tu) [![](https://i.imgur.com/mM30YiU.png)](https://slow.pics/c/RCftz1N5) --- **Source** ?️ Video and Jpn Audio: **[[UCCUSS]](https://nyaa.si/view/1277927)** ?️ Eng Audio: **[[Golumpa]](https://nyaa.si/view/1273212)** ?️ Subs: **[[Anime Time]](https://nyaa.si/view/1276140)** ? *Subtitles Info: [CR/Funi] - Format `ASS`* --- **Media Info** ? [Full Mediainfo incl. Encoder Settings](https://pastebin.com/bkJmgY8Q) ``` General Unique ID : 239093783894668927491050465812536404132 (0xB3DFC9ACBBDD77638F37C744DBB4A8A4) Complete name : Kakushigoto - S01E01.mkv Format : Matroska Format version : Version 4 File size : 345 MiB Duration : 23 min 42 s Overall bit rate : 2 035 kb/s Movie name : Kakushigoto - S01E01 Encoded date : UTC 2020-12-21 21:28:48 Writing application : mkvmerge v47.0.0 ('Black Flag') 64-bit Writing library : libebml v1.3.10 + libmatroska v1.5.2 / Lavf58.29.100 Attachments : TCB_____.TTF / TCCEB.TTF Video ID : 1 Format : HEVC Format/Info : High Efficiency Video Coding Format profile : Main 10@L4.1@High Codec ID : V_MPEGH/ISO/HEVC Duration : 23 min 42 s Bit rate : 1 572 kb/s Width : 1 920 pixels Height : 1 080 pixels Display aspect ratio : 16:9 Frame rate mode : Constant Frame rate : 23.976 (24000/1001) FPS Color space : YUV Chroma subsampling : 4:2:0 Bit depth : 10 bits Bits/(Pixel*Frame) : 0.032 Stream size : 267 MiB (77%) Writing library : x265 3.2.1+1-b5c86a64bbbe:[Windows][GCC 9.2.0][64 bit] 10bit Encoding settings : <Check Link Above> Default : Yes Forced : No Color range : Limited Color primaries : BT.709 Transfer characteristics : BT.709 Matrix coefficients : BT.709 Audio #1 ID : 2 Format : AAC LC Format/Info : Advanced Audio Codec Low Complexity Codec ID : A_AAC-2 Duration : 23 min 40 s Bit rate : 253 kb/s Channel(s) : 2 channels Channel layout : L R Sampling rate : 48.0 kHz Frame rate : 46.875 FPS (1024 SPF) Compression mode : Lossy Delay relative to video : 959 ms Stream size : 42.9 MiB (12%) Title : Stereo - ENG (AAC) Language : English Default : Yes Forced : No Audio #2 ID : 3 Format : AAC LC Format/Info : Advanced Audio Codec Low Complexity Codec ID : A_AAC-2 Duration : 23 min 42 s Bit rate : 205 kb/s Channel(s) : 2 channels Channel layout : L R Sampling rate : 48.0 kHz Frame rate : 46.875 FPS (1024 SPF) Compression mode : Lossy Delay relative to video : -43 ms Stream size : 34.8 MiB (10%) Title : Stereo - JPN (AAC) Language : Japanese Default : No Forced : No Text #1 ID : 4 Format : ASS Codec ID : S_TEXT/ASS Codec ID/Info : Advanced Sub Station Alpha Duration : 22 min 31 s Bit rate : 170 b/s Count of elements : 300 Compression mode : Lossless Stream size : 28.1 KiB (0%) Title : Signs & Songs - ENG (ASS) Language : English Default : Yes Forced : No Text #2 ID : 5 Format : ASS Codec ID : S_TEXT/ASS Codec ID/Info : Advanced Sub Station Alpha Duration : 23 min 26 s Bit rate : 296 b/s Count of elements : 706 Compression mode : Lossless Stream size : 50.8 KiB (0%) Title : Dialog - ENG (ASS) Language : English Default : No Forced : No Menu 00:01:42.330 : en:Opening 00:03:13.000 : en:Part A 00:12:14.692 : en:Part B 00:22:00.350 : en:Ending 00:23:31.000 : en:Preview ```

File list

  • [neoHEVC] Kakushigoto [BD 1080p x265 HEVC AAC] [Dual Audio]
    • Language Options
      • 1. Change [Default Tracks].bat (283 Bytes)
      • 2. Make [Single Audio] Japanese.bat (124 Bytes)
      • mkvmerge.exe (9.6 MiB)
      • mkvpropedit.exe (5.1 MiB)
    • Kakushigoto - S01E01.mkv (345.0 MiB)
    • Kakushigoto - S01E02.mkv (311.5 MiB)
    • Kakushigoto - S01E03.mkv (334.0 MiB)
    • Kakushigoto - S01E04.mkv (310.8 MiB)
    • Kakushigoto - S01E05.mkv (277.4 MiB)
    • Kakushigoto - S01E06.mkv (302.6 MiB)
    • Kakushigoto - S01E07.mkv (295.6 MiB)
    • Kakushigoto - S01E08.mkv (290.9 MiB)
    • Kakushigoto - S01E09.mkv (330.9 MiB)
    • Kakushigoto - S01E10.mkv (299.7 MiB)
    • Kakushigoto - S01E11.mkv (286.2 MiB)
    • Kakushigoto - S01E12.mkv (279.2 MiB)
And there you go into the garbage bin, WEB version!
Chaptering is kinda wonky

neoborn (uploader)

User
Did add chapters myself for the first time. I personally don't really utilize them but wanted to add them nontheless. Please tell me what's up with them so I can do them better next time :>
Can you make Uma \musume S1 BD 1080?
Well, they're not synced properly Edit: also ep7 has a 'I know' subbed that lasts the whole episode

neoborn (uploader)

User
Grab fixed EP 7 sub_only or full_episode on DDL (link in description)
Sweet, thanks a bunch for ep7
even if it isn't a BDrip, thanks, chapter markers and signs subs are like the main reason to get a BD version anyway. PS chapter markers are the best, they let you skip the OP or ED with just the press of a button, instead of hitting the skip forward button 20-30 times, they are a must have for me.