[naiyas] Weathering With You (Tenki no Ko) 2019 [BD 2160p HDR10 DTS-HD MA Dual-Audio].mkv

Category:
Date:
2021-01-03 01:49 UTC
Submitter:
Seeders:
12
Information:
Leechers:
0
File size:
47.2 GiB
Completed:
175
Info hash:
ff16fb8d98c74292a40e73271fa88a531b1e8f20
source: U2+USBDMV ``` General Unique ID : 249456526955493708791672661865550952047 (0xBBAB945AADAC2558A9B6A3410B99B66F) Complete name : naiyas] Weathering With You (Tenki no Ko) 2019 [BD 2160p HDR10 DTS-HD MA Dual-Audio].mkv Format : Matroska Format version : Version 4 File size : 47.2 GiB Duration : 1 h 52 min Overall bit rate mode : Variable Overall bit rate : 60.3 Mb/s Movie name : [naiyas] Weathering With You (Tenki no Ko) 2019 [BD 2160p HDR10 DTS-HD MA Dual-Audio] Encoded date : UTC 2021-01-03 00:32:29 Writing application : mkvmerge v51.0.0 ('I Wish') 64-bit Writing library : libebml v1.4.0 + libmatroska v1.6.2 Cover : Yes Attachments : cover_land.jpg / small_cover.jpg / small_cover_land.jpg / cover.jpg Video ID : 1 ID in the original source medium : 4113 (0x1011) Format : HEVC Format/Info : High Efficiency Video Coding Format profile : Main 10@L5.1@High HDR format : SMPTE ST 2086, HDR10 compatible Codec ID : V_MPEGH/ISO/HEVC Duration : 1 h 52 min Bit rate : 52.6 Mb/s Width : 3 840 pixels Height : 2 160 pixels Display aspect ratio : 16:9 Frame rate mode : Constant Frame rate : 23.976 (24000/1001) FPS Color space : YUV Chroma subsampling : 4:2:0 (Type 2) Bit depth : 10 bits Bits/(Pixel*Frame) : 0.264 Stream size : 41.2 GiB (87%) Title : JPBD HDR10 4k Language : Japanese Default : No Forced : No Color range : Limited Color primaries : BT.2020 Transfer characteristics : PQ Matrix coefficients : BT.2020 non-constant Mastering display color primaries : BT.2020 Mastering display luminance : min: 0.0000 cd/m2, max: 1000 cd/m2 Maximum Content Light Level : 992 cd/m2 Maximum Frame-Average Light Level : 772 cd/m2 Original source medium : Blu-ray Audio #1 ID : 2 Format : DTS XLL Format/Info : Digital Theater Systems Commercial name : DTS-HD Master Audio Codec ID : A_DTS Duration : 1 h 52 min Bit rate mode : Variable Bit rate : 3 594 kb/s Channel(s) : 6 channels Channel layout : C L R Ls Rs LFE Sampling rate : 48.0 kHz Frame rate : 93.750 FPS (512 SPF) Bit depth : 24 bits Compression mode : Lossless Delay relative to video : 1 s 83 ms Stream size : 2.82 GiB (6%) Title : USBD Language : English Default : Yes Forced : No Audio #2 ID : 3 Format : DTS XLL Format/Info : Digital Theater Systems Commercial name : DTS-HD Master Audio Codec ID : A_DTS Duration : 1 h 52 min Bit rate mode : Variable Bit rate : 3 568 kb/s Channel(s) : 6 channels Channel layout : C L R Ls Rs LFE Sampling rate : 48.0 kHz Frame rate : 93.750 FPS (512 SPF) Bit depth : 24 bits Compression mode : Lossless Delay relative to video : 1 s 83 ms Stream size : 2.80 GiB (6%) Title : JP-USBD Language : Japanese Default : No Forced : No Audio #3 ID : 4 Format : AC-3 Format/Info : Audio Coding 3 Commercial name : Dolby Digital Codec ID : A_AC3 Duration : 1 h 52 min Bit rate mode : Constant Bit rate : 448 kb/s Channel(s) : 6 channels Channel layout : L R C LFE Ls Rs Sampling rate : 48.0 kHz Frame rate : 31.250 FPS (1536 SPF) Compression mode : Lossy Delay relative to video : 1 s 83 ms Stream size : 360 MiB (1%) Title : USBD [audio descriptive] Language : English Service kind : Complete Main Default : No Forced : No Text #1 ID : 5 Format : PGS Muxing mode : zlib Codec ID : S_HDMV/PGS Codec ID/Info : Picture based subtitle format used on BDs/HD-DVDs Stream size : 35.0 MiB (0%) Title : English [CC] Language : English Default : Yes Forced : No Text #2 ID : 6 Format : PGS Muxing mode : zlib Codec ID : S_HDMV/PGS Codec ID/Info : Picture based subtitle format used on BDs/HD-DVDs Stream size : 25.7 MiB (0%) Title : Japanese based translation Language : English Text #3 ID : 7 Format : PGS Muxing mode : zlib Codec ID : S_HDMV/PGS Codec ID/Info : Picture based subtitle format used on BDs/HD-DVDs Stream size : 21.3 MiB (0%) Language : Spanish Text #4 ID : 8 Format : PGS Muxing mode : zlib Codec ID : S_HDMV/PGS Codec ID/Info : Picture based subtitle format used on BDs/HD-DVDs Stream size : 22.3 MiB (0%) Language : French Menu 00:00:00.000 : en:Chapter 01 00:03:52.232 : en:Chapter 02 00:07:13.057 : en:Chapter 03 00:11:51.293 : en:Chapter 04 00:17:26.795 : en:Chapter 05 00:19:46.351 : en:Chapter 06 00:22:25.260 : en:Chapter 07 00:26:07.691 : en:Chapter 08 00:30:07.972 : en:Chapter 09 00:34:27.982 : en:Chapter 10 00:38:29.682 : en:Chapter 11 00:41:36.243 : en:Chapter 12 00:44:05.893 : en:Chapter 13 00:47:59.126 : en:Chapter 14 00:52:11.253 : en:Chapter 15 00:55:55.852 : en:Chapter 16 00:58:46.773 : en:Chapter 17 01:01:42.532 : en:Chapter 18 01:05:18.247 : en:Chapter 19 01:08:55.923 : en:Chapter 20 01:13:53.178 : en:Chapter 21 01:16:58.322 : en:Chapter 22 01:19:57.584 : en:Chapter 23 01:23:15.573 : en:Chapter 24 01:25:48.226 : en:Chapter 25 01:28:51.117 : en:Chapter 26 01:33:02.868 : en:Chapter 27 01:38:32.907 : en:Chapter 28 01:43:29.244 : en:Chapter 29 01:47:40.579 : en:Chapter 30 01:52:12.600 : en:Chapter 31 ``` All contents untouched

File list

  • [naiyas] Weathering With You (Tenki no Ko) 2019 [BD 2160p HDR10 DTS-HD MA Dual-Audio].mkv (47.2 GiB)

naiyas (uploader)

User
More 4K's remux coming
Maybe add remux to the title?