[TMeg] Kokoro Connect + OVA [BD 1080p x265 HEVC 10-bit DTS-HD][Dual Audio]

Category:
Date:
2021-01-01 22:05 UTC
Submitter:
Seeders:
3
Information:
No information.
Leechers:
0
File size:
30.9 GiB
Completed:
213
Info hash:
0e29317b7dcf2c5db4ddd793c7bdf31e457f8ea7
**Kokoro Connect** US Blu-ray Encode Video - 1080P x265 HEVC 10-bit Audio - DTS-HD, Dual Audio - English 2.0 - Japanese 2.0 Subtitles (PGS) - Track 1 (default): Songs & Signs - Track 2: Dialogue Episode 13 JPN track was missing due to bad metadata on the disc that I didn't catch. Patch resolves this. https://drive.google.com/file/d/1Xm9W9GMjVBUltTAVGJpzZ89Lm51gZLj5/view?usp=sharing Mediainfo ``` General Unique ID : 107094393299977114506848561467625878030 (0x5091A140AEF5EEB7279D375D57D4B20E) Complete name : Kokoro Connect - S01E06.mkv Format : Matroska Format version : Version 4 File size : 1.95 GiB Duration : 28 min 1 s Overall bit rate mode : Variable Overall bit rate : 9 936 kb/s Writing application : Lavf58.45.100 Writing library : Lavf58.45.100 ErrorDetectionType : Per level 1 Video ID : 1 Format : HEVC Format/Info : High Efficiency Video Coding Format profile : Main 10@L4@High Codec ID : V_MPEGH/ISO/HEVC Duration : 28 min 1 s Bit rate : 5 963 kb/s Width : 1 920 pixels Height : 1 080 pixels Display aspect ratio : 16:9 Frame rate mode : Constant Frame rate : 23.976 (24000/1001) FPS Color space : YUV Chroma subsampling : 4:2:0 Bit depth : 10 bits Bits/(Pixel*Frame) : 0.120 Stream size : 1.17 GiB (60%) Writing library : x265 0.0:[Mac OS X][clang 12.0.0][64 bit] 10bit Encoding settings : cpuid=1111039 / frame-threads=2 / wpp / no-pmode / no-pme / no-psnr / no-ssim / log-level=2 / input-csp=1 / input-res=1920x1080 / interlace=0 / total-frames=0 / level-idc=0 / high-tier=1 / uhd-bd=0 / ref=3 / no-allow-non-conformance / no-repeat-headers / annexb / no-aud / no-hrd / info / hash=0 / no-temporal-layers / open-gop / min-keyint=23 / keyint=250 / gop-lookahead=0 / bframes=4 / b-adapt=2 / b-pyramid / bframe-bias=0 / rc-lookahead=20 / lookahead-slices=6 / scenecut=40 / hist-scenecut=0 / radl=0 / no-splice / no-intra-refresh / ctu=64 / min-cu-size=8 / no-rect / no-amp / max-tu-size=32 / tu-inter-depth=1 / tu-intra-depth=1 / limit-tu=0 / rdoq-level=0 / dynamic-rd=0.00 / no-ssim-rd / signhide / no-tskip / nr-intra=0 / nr-inter=0 / no-constrained-intra / strong-intra-smoothing / max-merge=3 / limit-refs=1 / no-limit-modes / me=1 / subme=2 / merange=57 / temporal-mvp / no-frame-dup / no-hme / weightp / no-weightb / no-analyze-src-pics / deblock=0:0 / sao / no-sao-non-deblock / rd=3 / selective-sao=4 / early-skip / rskip / no-fast-intra / no-tskip-fast / no-cu-lossless / b-intra / no-splitrd-skip / rdpenalty=0 / psy-rd=2.00 / psy-rdoq=0.00 / no-rd-refine / no-lossless / cbqpoffs=0 / crqpoffs=0 / rc=abr / bitrate=6000 / qcomp=0.60 / qpstep=4 / stats-write=0 / stats-read=0 / vbv-maxrate=18000 / vbv-bufsize=18000 / vbv-init=0.8 / ipratio=1.40 / pbratio=1.30 / aq-mode=2 / aq-strength=1.00 / cutree / zone-count=0 / no-strict-cbr / qg-size=32 / no-rc-grain / qpmax=69 / qpmin=0 / no-const-vbv / sar=1 / overscan=0 / videoformat=5 / range=0 / colorprim=1 / transfer=1 / colormatrix=1 / chromaloc=0 / display-window=0 / cll=0,0 / min-luma=0 / max-luma=1023 / log2-max-poc-lsb=8 / vui-timing-info / vui-hrd-info / slices=1 / no-opt-qp-pps / no-opt-ref-list-length-pps / no-multi-pass-opt-rps / scenecut-bias=0.05 / hist-threshold=0.01 / no-opt-cu-delta-qp / no-aq-motion / no-hdr10 / no-hdr10-opt / no-dhdr10-opt / no-idr-recovery-sei / analysis-reuse-level=0 / analysis-save-reuse-level=0 / analysis-load-reuse-level=0 / scale-factor=0 / refine-intra=0 / refine-inter=0 / refine-mv=1 / refine-ctu-distortion=0 / no-limit-sao / ctu-info=0 / no-lowpass-dct / refine-analysis-type=0 / copy-pic=1 / max-ausize-factor=1.0 / no-dynamic-refine / no-single-sei / no-hevc-aq / no-svt / no-field / qp-adaptation-range=1.00 / no-scenecut-aware-qpconformance-window-offsets / right=0 / bottom=0 / decoder-max-rate=0 Language : English Default : Yes Forced : No Color range : Limited Color primaries : BT.709 Transfer characteristics : BT.709 Matrix coefficients : BT.709 Audio #1 ID : 2 Format : DTS XLL Format/Info : Digital Theater Systems Commercial name : DTS-HD Master Audio Codec ID : A_DTS Duration : 26 min 1 s Bit rate mode : Variable Bit rate : 2 088 kb/s Channel(s) : 2 channels Channel layout : L R Sampling rate : 48.0 kHz Frame rate : 93.750 FPS (512 SPF) Bit depth : 24 bits Compression mode : Lossless Stream size : 389 MiB (20%) Language : English Default : Yes Forced : No Audio #2 ID : 3 Format : DTS XLL Format/Info : Digital Theater Systems Commercial name : DTS-HD Master Audio Codec ID : A_DTS Duration : 26 min 1 s Bit rate mode : Variable Bit rate : 2 116 kb/s Channel(s) : 2 channels Channel layout : L R Sampling rate : 48.0 kHz Frame rate : 93.750 FPS (512 SPF) Bit depth : 24 bits Compression mode : Lossless Stream size : 394 MiB (20%) Language : Japanese Default : No Forced : No Text #1 ID : 4 Format : PGS Codec ID : S_HDMV/PGS Codec ID/Info : Picture based subtitle format used on BDs/HD-DVDs Duration : 24 min 17 s Bit rate : 4 883 b/s Count of elements : 73 Stream size : 869 KiB (0%) Language : English Default : Yes Forced : No Text #2 ID : 5 Format : PGS Codec ID : S_HDMV/PGS Codec ID/Info : Picture based subtitle format used on BDs/HD-DVDs Duration : 25 min 44 s Bit rate : 57.1 kb/s Count of elements : 692 Stream size : 10.5 MiB (1%) Language : English Default : No Forced : No Menu 00:00:00.000 : :Chapter 01 00:01:33.009 : :Chapter 02 00:03:02.974 : :Chapter 03 00:10:16.032 : :Chapter 04 00:24:15.036 : :Chapter 05 00:24:31.970 : :Chapter 06 00:26:01.560 : :Chapter 07 ```

File list

  • Kokoro Connect + OVA [BD 1080p x265 HEVC 10-bit DTS-HD][Dual Audio]
    • Kokoro Connect - S01E01.mkv (1.8 GiB)
    • Kokoro Connect - S01E02.mkv (1.8 GiB)
    • Kokoro Connect - S01E03.mkv (1.8 GiB)
    • Kokoro Connect - S01E04.mkv (1.8 GiB)
    • Kokoro Connect - S01E05.mkv (1.9 GiB)
    • Kokoro Connect - S01E06.mkv (1.9 GiB)
    • Kokoro Connect - S01E07.mkv (1.8 GiB)
    • Kokoro Connect - S01E08.mkv (1.8 GiB)
    • Kokoro Connect - S01E09.mkv (1.8 GiB)
    • Kokoro Connect - S01E10.mkv (1.8 GiB)
    • Kokoro Connect - S01E11.mkv (1.8 GiB)
    • Kokoro Connect - S01E12.mkv (1.8 GiB)
    • Kokoro Connect - S01E13.mkv (1.4 GiB)
    • Kokoro Connect - S01E14.mkv (2.2 GiB)
    • Kokoro Connect - S01E15.mkv (2.0 GiB)
    • Kokoro Connect - S01E16.mkv (2.0 GiB)
    • Kokoro Connect - S01E17.mkv (1.5 GiB)
You're the first person I've ever seen encode from a mac. EDIT: Also, I think you set the mediainfo to explode after being viewed.

Tatsumeg (uploader)

User
@Simplistic I'm lucky that I have a choice, but I tend to go Mac most of the time. :) As for the mediainfo link, Hastebin is supposed to stick around for 30 days after it's last view. I may switch it or embed it in the description if you and others are having issues though.

npz

User
Interesting. Why the ABR though? Also from the looks of it, you used medium and changed psy?
Yeah, It seems to work again @Tatsumeg. Also, yeah why ABR instead of CRF?

Tatsumeg (uploader)

User
I use Don Melton's excellent transcoding tools, specifically [other-transcode](https://github.com/donmelton/other_video_transcoding). His goals are encodes that can't be distinguished from the originals and has recently been working a lot with hardware video encoding. I used to spend boatloads of time hanging around in the Doom9 and VideoHelp forums and crafting Avisynth scripts for my encodes. But it got to a point where I was spending more time doing that than actually enjoying my tv shows and movies. After discovering Don's initial tools about 6 years ago, it helped restore the balance. For this encode and my previous encode, I decided to use the x265 software encoding option as it may get a little bit better quality at the expense of encoding speed. For example, the Kokoro encode took around 10 hours. For fun, I ran the same encode as a hardware encode this morning using my Windows box/nVidia card and it ending up taking just a little over an hour. I doubt I could tell which encode was which so maybe I'll use the hardware encoder for my next release. As to the use of ABR, [this](https://github.com/donmelton/other_video_transcoding/wiki/Ratecontrol) explains it a lot better than I can. @npz, I also couldn't find any specific instances of psy or medium in the github code repository, so I'm guessing that they are being set as defaults when the ABR settings are used.
Seems fine on shows that don't "require" filtering, such as most Japanese Blu-rays. However, most USA Blu-rays suffer from color banding hell, so you still end up needing some sort of filtering. That is if the banding bothers you of course.

Tatsumeg (uploader)

User
Yes, definitely...that's the potential drawback with this method...it's only as good as the source is.

Tatsumeg (uploader)

User
@Simplistic -- do you have any examples of Avisynth/Vapoursynth filtering scripts that could be used? I feel like I'm totally out of the game...it's been years.
Man, you made a BIG mistake. Episode 13 doesn't have the Japanese audio track -_-

Tatsumeg (uploader)

User
[Patch](https://drive.google.com/file/d/1Xm9W9GMjVBUltTAVGJpzZ89Lm51gZLj5/view?usp=sharing) for episode 13 missing audio.