[TMeg] Ore, Twintails ni Narimasu. / Gonna be the Twin-Tail!! [BD 1080p x265 HEVC 10-bit TrueHD][Dual Audio]

Category:
Date:
2020-12-25 00:30 UTC
Submitter:
Seeders:
4
Information:
No information.
Leechers:
0
File size:
19.8 GiB
Completed:
262
Info hash:
331212812615e7163ae808752ed29d08aa61fead
**Ore, Twin tails ni Narimasu. / Gonna be the Twin-Tail!!** US Blu-ray Encode - 1080P x265 HEVC 10-bit TrueHD, Dual-Audio Audio: - English 5.1 - Japanese 2.0 - English Commentary on Episodes 1 & 11 Subtitles (PGS): - Track 1 (default): Songs & Signs - Track 2: Dialogue Mediiainfo: ``` General Complete name : Gonna be the Twin-Tail!! - S01E02.mkv Format : Matroska Format version : Version 4 File size : 1.59 GiB Duration : 24 min 12 s Overall bit rate mode : Variable Overall bit rate : 9 426 kb/s Encoded date : UTC 2020-12-23 18:35:18 Writing application : mkvmerge v51.0.0 ('I Wish') 64-bit Writing library : libebml v1.4.0 + libmatroska v1.6.2 / Lavf58.45.100 Video ID : 1 Format : HEVC Format/Info : High Efficiency Video Coding Format profile : Main 10@L4@High Codec ID : V_MPEGH/ISO/HEVC Duration : 24 min 12 s Bit rate : 6 095 kb/s Width : 1 920 pixels Height : 1 080 pixels Display aspect ratio : 16:9 Frame rate mode : Constant Frame rate : 23.976 (24000/1001) FPS Color space : YUV Chroma subsampling : 4:2:0 Bit depth : 10 bits Bits/(Pixel*Frame) : 0.123 Stream size : 1.03 GiB (65%) Writing library : x265 0.0:[Mac OS X][clang 12.0.0][64 bit] 10bit Encoding settings : cpuid=1111039 / frame-threads=2 / wpp / no-pmode / no-pme / no-psnr / no-ssim / log-level=2 / input-csp=1 / input-res=1920x1080 / interlace=0 / total-frames=0 / level-idc=0 / high-tier=1 / uhd-bd=0 / ref=3 / no-allow-non-conformance / no-repeat-headers / annexb / no-aud / no-hrd / info / hash=0 / no-temporal-layers / open-gop / min-keyint=23 / keyint=250 / gop-lookahead=0 / bframes=4 / b-adapt=2 / b-pyramid / bframe-bias=0 / rc-lookahead=20 / lookahead-slices=6 / scenecut=40 / hist-scenecut=0 / radl=0 / no-splice / no-intra-refresh / ctu=64 / min-cu-size=8 / no-rect / no-amp / max-tu-size=32 / tu-inter-depth=1 / tu-intra-depth=1 / limit-tu=0 / rdoq-level=0 / dynamic-rd=0.00 / no-ssim-rd / signhide / no-tskip / nr-intra=0 / nr-inter=0 / no-constrained-intra / strong-intra-smoothing / max-merge=3 / limit-refs=1 / no-limit-modes / me=1 / subme=2 / merange=57 / temporal-mvp / no-frame-dup / no-hme / weightp / no-weightb / no-analyze-src-pics / deblock=0:0 / sao / no-sao-non-deblock / rd=3 / selective-sao=4 / early-skip / rskip / no-fast-intra / no-tskip-fast / no-cu-lossless / b-intra / no-splitrd-skip / rdpenalty=0 / psy-rd=2.00 / psy-rdoq=0.00 / no-rd-refine / no-lossless / cbqpoffs=0 / crqpoffs=0 / rc=abr / bitrate=6000 / qcomp=0.60 / qpstep=4 / stats-write=0 / stats-read=0 / vbv-maxrate=18000 / vbv-bufsize=18000 / vbv-init=0.8 / ipratio=1.40 / pbratio=1.30 / aq-mode=2 / aq-strength=1.00 / cutree / zone-count=0 / no-strict-cbr / qg-size=32 / no-rc-grain / qpmax=69 / qpmin=0 / no-const-vbv / sar=1 / overscan=0 / videoformat=5 / range=0 / colorprim=1 / transfer=1 / colormatrix=1 / chromaloc=0 / display-window=0 / cll=0,0 / min-luma=0 / max-luma=1023 / log2-max-poc-lsb=8 / vui-timing-info / vui-hrd-info / slices=1 / no-opt-qp-pps / no-opt-ref-list-length-pps / no-multi-pass-opt-rps / scenecut-bias=0.05 / hist-threshold=0.01 / no-opt-cu-delta-qp / no-aq-motion / no-hdr10 / no-hdr10-opt / no-dhdr10-opt / no-idr-recovery-sei / analysis-reuse-level=0 / analysis-save-reuse-level=0 / analysis-load-reuse-level=0 / scale-factor=0 / refine-intra=0 / refine-inter=0 / refine-mv=1 / refine-ctu-distortion=0 / no-limit-sao / ctu-info=0 / no-lowpass-dct / refine-analysis-type=0 / copy-pic=1 / max-ausize-factor=1.0 / no-dynamic-refine / no-single-sei / no-hevc-aq / no-svt / no-field / qp-adaptation-range=1.00 / no-scenecut-aware-qpconformance-window-offsets / right=0 / bottom=0 / decoder-max-rate=0 Language : English Default : Yes Forced : No Color range : Limited Color primaries : BT.709 Transfer characteristics : BT.709 Matrix coefficients : BT.709 Audio #1 ID : 2 Format : MLP FBA Format/Info : Meridian Lossless Packing FBA Commercial name : Dolby TrueHD Codec ID : A_TRUEHD Duration : 24 min 10 s Bit rate mode : Variable Bit rate : 2 072 kb/s Maximum bit rate : 3 402 kb/s Channel(s) : 6 channels Channel layout : L R C LFE Ls Rs Sampling rate : 48.0 kHz Frame rate : 1 200.000 FPS (40 SPF) Compression mode : Lossless Stream size : 358 MiB (22%) Language : English Default : Yes Forced : No Audio #2 ID : 3 Format : MLP FBA Format/Info : Meridian Lossless Packing FBA Commercial name : Dolby TrueHD Codec ID : A_TRUEHD Duration : 24 min 12 s Bit rate mode : Variable Bit rate : 1 111 kb/s Maximum bit rate : 1 596 kb/s Channel(s) : 2 channels Channel layout : L R Sampling rate : 48.0 kHz Frame rate : 1 200.000 FPS (40 SPF) Compression mode : Lossless Stream size : 192 MiB (12%) Language : Japanese Default : No Forced : No Text #1 ID : 4 Format : PGS Muxing mode : zlib Codec ID : S_HDMV/PGS Codec ID/Info : Picture based subtitle format used on BDs/HD-DVDs Duration : 23 min 11 s Bit rate : 6 086 b/s Count of elements : 90 Stream size : 1.01 MiB (0%) Title : Songs and Signs Language : English Default : Yes Forced : No Text #2 ID : 5 Format : PGS Muxing mode : zlib Codec ID : S_HDMV/PGS Codec ID/Info : Picture based subtitle format used on BDs/HD-DVDs Duration : 24 min 1 s Bit rate : 59.5 kb/s Count of elements : 818 Stream size : 10.2 MiB (1%) Title : Dialogue Language : English Default : No Forced : No Menu 00:00:00.000 : :Chapter 01 00:00:58.058 : :Chapter 02 00:02:28.022 : :Chapter 03 00:11:19.011 : :Chapter 04 00:22:10.996 : :Chapter 05 00:23:41.002 : :Chapter 06 ```

File list

  • Gonna be the Twin-Tail!! [BD 1080p x265 HEVC 10-bit TrueHD][Dual Audio]
    • Gonna be the Twin-Tail!! - S01E01.mkv (1.8 GiB)
    • Gonna be the Twin-Tail!! - S01E02.mkv (1.6 GiB)
    • Gonna be the Twin-Tail!! - S01E03.mkv (1.7 GiB)
    • Gonna be the Twin-Tail!! - S01E04.mkv (1.7 GiB)
    • Gonna be the Twin-Tail!! - S01E05.mkv (1.6 GiB)
    • Gonna be the Twin-Tail!! - S01E06.mkv (1.6 GiB)
    • Gonna be the Twin-Tail!! - S01E07.mkv (1.6 GiB)
    • Gonna be the Twin-Tail!! - S01E08.mkv (1.6 GiB)
    • Gonna be the Twin-Tail!! - S01E09.mkv (1.6 GiB)
    • Gonna be the Twin-Tail!! - S01E10.mkv (1.6 GiB)
    • Gonna be the Twin-Tail!! - S01E11.mkv (1.8 GiB)
    • Gonna be the Twin-Tail!! - S01E12.mkv (1.6 GiB)

D44

User
Looks dumb, too dumb...pass.
but is it better than the commie encode