Hunter.X.Hunter.2011.S03.1080p.Blu-Ray.10-Bit.Dual-Audio.DTS-HD.x265-iAHD

Category:
Date:
2020-12-24 02:20 UTC
Submitter:
Seeders:
6
Information:
No information.
Leechers:
1
File size:
20.7 GiB
Completed:
500
Info hash:
527ddd18735271476d602dbb308815e5753a65ed
Video ID : 1 Format : HEVC Format/Info : High Efficiency Video Coding Format profile : Main 10@L5@Main Codec ID : V_MPEGH/ISO/HEVC Duration : 23 min 46 s Bit rate : 6 403 kb/s Width : 1 920 pixels Height : 1 080 pixels Display aspect ratio : 16:9 Frame rate mode : Constant Frame rate : 23.976 (24000/1001) FPS Color space : YUV Chroma subsampling : 4:2:0 Bit depth : 10 bits Bits/(Pixel*Frame) : 0.129 Stream size : 1.06 GiB (65%) Writing library : x265 3.2.1+1-b5c86a64bbbe:[Windows][GCC 9.2.0][64 bit] 10bit Encoding settings : cpuid=1111039 / frame-threads=4 / numa-pools=16 / wpp / no-pmode / no-pme / no-psnr / no-ssim / log-level=2 / input-csp=1 / input-res=1920x1080 / interlace=0 / total-frames=0 / level-idc=0 / high-tier=1 / uhd-bd=0 / ref=6 / no-allow-non-conformance / no-repeat-headers / annexb / no-aud / no-hrd / info / hash=0 / no-temporal-layers / open-gop / min-keyint=24 / keyint=240 / gop-lookahead=0 / bframes=16 / b-adapt=2 / b-pyramid / bframe-bias=0 / rc-lookahead=50 / lookahead-slices=4 / scenecut=40 / radl=0 / no-splice / no-intra-refresh / ctu=32 / min-cu-size=8 / no-rect / no-amp / max-tu-size=32 / tu-inter-depth=1 / tu-intra-depth=3 / limit-tu=0 / rdoq-level=2 / dynamic-rd=0.00 / no-ssim-rd / signhide / tskip / nr-intra=0 / nr-inter=0 / no-constrained-intra / no-strong-intra-smoothing / max-merge=3 / limit-refs=3 / limit-modes / me=3 / subme=3 / merange=57 / temporal-mvp / no-hme / weightp / no-weightb / no-analyze-src-pics / deblock=1:1 / no-sao / no-sao-non-deblock / rd=4 / selective-sao=0 / no-early-skip / rskip / no-fast-intra / tskip-fast / no-cu-lossless / no-b-intra / no-splitrd-skip / rdpenalty=0 / psy-rd=0.80 / psy-rdoq=2.00 / no-rd-refine / no-lossless / cbqpoffs=0 / crqpoffs=0 / rc=crf / crf=16.0 / qcomp=0.60 / qpstep=4 / stats-write=0 / stats-read=0 / ipratio=1.40 / pbratio=1.30 / aq-mode=3 / aq-strength=1.25 / cutree / zone-count=0 / no-strict-cbr / qg-size=32 / no-rc-grain / qpmax=69 / qpmin=0 / no-const-vbv / sar=1 / overscan=0 / videoformat=5 / range=0 / colorprim=1 / transfer=1 / colormatrix=1 / chromaloc=0 / display-window=0 / cll=0,0 / min-luma=0 / max-luma=1023 / log2-max-poc-lsb=8 / vui-timing-info / vui-hrd-info / slices=1 / no-opt-qp-pps / no-opt-ref-list-length-pps / no-multi-pass-opt-rps / scenecut-bias=0.05 / no-opt-cu-delta-qp / no-aq-motion / no-hdr / no-hdr-opt / no-dhdr10-opt / no-idr-recovery-sei / analysis-reuse-level=5 / scale-factor=0 / refine-intra=0 / refine-inter=0 / refine-mv=1 / refine-ctu-distortion=0 / no-limit-sao / ctu-info=0 / no-lowpass-dct / refine-analysis-type=0 / copy-pic=1 / max-ausize-factor=1.0 / no-dynamic-refine / no-single-sei / no-hevc-aq / no-svt / no-field / qp-adaptation-range=1.00 Language : Japanese Default : Yes Forced : No Color range : Limited Color primaries : BT.709 Transfer characteristics : BT.709 Matrix coefficients : BT.709 Audio #1 ID : 2 Format : DTS XLL Format/Info : Digital Theater Systems Commercial name : DTS-HD Master Audio Codec ID : A_DTS Duration : 23 min 46 s Bit rate mode : Variable Bit rate : 1 721 kb/s Channel(s) : 2 channels Channel layout : L R Sampling rate : 48.0 kHz Frame rate : 93.750 FPS (512 SPF) Bit depth : 16 bits Compression mode : Lossless Stream size : 293 MiB (17%) Language : English Default : Yes Forced : No Audio #2 ID : 3 Format : DTS XLL Format/Info : Digital Theater Systems Commercial name : DTS-HD Master Audio Codec ID : A_DTS Duration : 23 min 46 s Bit rate mode : Variable Bit rate : 1 709 kb/s Channel(s) : 2 channels Channel layout : L R Sampling rate : 48.0 kHz Frame rate : 93.750 FPS (512 SPF) Bit depth : 16 bits Compression mode : Lossless Stream size : 291 MiB (17%) Language : Japanese Default : No Forced : No Text #1 ID : 4 Format : PGS Muxing mode : zlib Codec ID : S_HDMV/PGS Codec ID/Info : Picture based subtitle format used on BDs/HD-DVDs Duration : 22 min 33 s Bit rate : 6 392 b/s Count of elements : 98 Stream size : 1.03 MiB (0%) Title : Signs / Songs Language : English Default : Yes Forced : No Text #2 ID : 5 Format : PGS Muxing mode : zlib Codec ID : S_HDMV/PGS Codec ID/Info : Picture based subtitle format used on BDs/HD-DVDs Duration : 23 min 36 s Bit rate : 41.8 kb/s Count of elements : 788 Stream size : 7.06 MiB (0%) Title : Dialogue Language : English Default : No Forced : No Menu 00:00:00.000 : en:Chapter 01 00:02:04.416 : en:Chapter 02 00:10:33.258 : en:Chapter 03 00:22:10.913 : en:Chapter 04 00:23:25.613 : en:Chapter 05

File list

  • Hunter.X.Hunter.S03.1080p.Blu-Ray.10-Bit.Dual-Audio.DTS-HD.x265-iAHD
    • Hunter.X.Hunter.S03E01.1080p.Blu-Ray.10-Bit.Dual-Audio.DTS-HD.x265-iAHD.mkv (1.6 GiB)
    • Hunter.X.Hunter.S03E02.1080p.Blu-Ray.10-Bit.Dual-Audio.DTS-HD.x265-iAHD.mkv (1.7 GiB)
    • Hunter.X.Hunter.S03E03.1080p.Blu-Ray.10-Bit.Dual-Audio.DTS-HD.x265-iAHD.mkv (1.9 GiB)
    • Hunter.X.Hunter.S03E04.1080p.Blu-Ray.10-Bit.Dual-Audio.DTS-HD.x265-iAHD.mkv (1.7 GiB)
    • Hunter.X.Hunter.S03E05.1080p.Blu-Ray.10-Bit.Dual-Audio.DTS-HD.x265-iAHD.mkv (1.8 GiB)
    • Hunter.X.Hunter.S03E06.1080p.Blu-Ray.10-Bit.Dual-Audio.DTS-HD.x265-iAHD.mkv (1.8 GiB)
    • Hunter.X.Hunter.S03E07.1080p.Blu-Ray.10-Bit.Dual-Audio.DTS-HD.x265-iAHD.mkv (1.6 GiB)
    • Hunter.X.Hunter.S03E08.1080p.Blu-Ray.10-Bit.Dual-Audio.DTS-HD.x265-iAHD.mkv (1.7 GiB)
    • Hunter.X.Hunter.S03E09.1080p.Blu-Ray.10-Bit.Dual-Audio.DTS-HD.x265-iAHD.mkv (1.7 GiB)
    • Hunter.X.Hunter.S03E10.1080p.Blu-Ray.10-Bit.Dual-Audio.DTS-HD.x265-iAHD.mkv (1.7 GiB)
    • Hunter.X.Hunter.S03E11.1080p.Blu-Ray.10-Bit.Dual-Audio.DTS-HD.x265-iAHD.mkv (1.8 GiB)
    • Hunter.X.Hunter.S03E12.1080p.Blu-Ray.10-Bit.Dual-Audio.DTS-HD.x265-iAHD.mkv (1.7 GiB)
Thanks for S3!!
@iAHQ will you be posting all so the 2 movies?
@radydragoon He did the movies early last year. https://nyaa.si/view/1015436 https://nyaa.si/view/1127117
Can someone please reseed the movies linked above?
@LeVvE Thanks bro
Thanks for all the work. Happy to finally get to watch this. Have a nice christmas and newsyears everyone.
Someone please seed https://nyaa.si/view/1015436 (Hunter.x.Hunter.Phantom.Rouge.2013.) for just the 5% remaining please.
Thank you so much! : )
please do release " Re:Zero -Starting Life in Another World- - Season 1 (Director's Cut + OVA) [1080p] [English Dub]"
Could somebody tell me how does this compares with the CTR version?
@ab8895 what is ctr version?
@iAHQ once you posted all the Saint Seiya movies, will you post them again ?
Hi can you do more