[NSBC] Lupin no Musume ~Ai no Monogatari~ 2020 SP [HDTV] [720p]

Category:
Date:
2020-12-19 13:13 UTC
Submitter:
Seeders:
2
Information:
TlNCQy50bwo=
Leechers:
3
File size:
1.1 GiB
Completed:
1090
Info hash:
90251f59f0a9f1169936bd11786c49deb77d8b9f
> ### In case there is no seeder, visit [here](https://justpaste.it/nsbc) ![](https://img.topddl.net/images/2020/10/16/lnm.jpg "") ![](https://img.topddl.net/images/2020/12/19/Lupin-no-Musume-Ai-no-Monogatari-SP-720p-HDTV-AAC-x264-NSBC.mkv.jpg "") ``` General Unique ID : 116797058949043808103336974036127151988 (0x57DE4B9A652623D361055D0F4F1F7774) Complete name : Lupin no Musume ~Ai no Monogatari~ SP 720p HDTV AAC x264-NSBC.mkv Format : Matroska Format version : Version 4 File size : 1.14 GiB Duration : 45 min 39 s Overall bit rate : 3 583 kb/s Movie name : Lupin no Musume ~Ai no Monogatari~ SP 720p HDTV AAC x264-NSBC Encoded date : UTC 2020-12-19 12:56:56 Writing application : mkvmerge v29.0.0 ('Like It Or Not') 64-bit Writing library : libebml v1.3.6 + libmatroska v1.4.9 Video ID : 1 Format : AVC Format/Info : Advanced Video Codec Format profile : High@L4.1 Format settings : CABAC / 9 Ref Frames Format settings, CABAC : Yes Format settings, Reference frames : 9 frames Codec ID : V_MPEG4/ISO/AVC Duration : 45 min 39 s Bit rate : 3 359 kb/s Width : 1 280 pixels Height : 720 pixels Display aspect ratio : 16:9 Frame rate mode : Constant Frame rate : 29.970 (30000/1001) FPS Color space : YUV Chroma subsampling : 4:2:0 Bit depth : 8 bits Scan type : Progressive Bits/(Pixel*Frame) : 0.122 Stream size : 1.07 GiB (94%) Title : [NSBC] Writing library : x264 core 157 r2935 545de2f Encoding settings : cabac=1 / ref=9 / deblock=1:-3:-3 / analyse=0x3:0x113 / me=umh / subme=9 / psy=1 / psy_rd=1.00:0.15 / mixed_ref=1 / me_range=16 / chroma_me=1 / trellis=2 / 8x8dct=1 / cqm=0 / deadzone=21,11 / fast_pskip=1 / chroma_qp_offset=-3 / threads=12 / lookahead_threads=1 / sliced_threads=0 / nr=0 / decimate=1 / interlaced=0 / bluray_compat=0 / constrained_intra=0 / bframes=12 / b_pyramid=2 / b_adapt=1 / b_bias=0 / direct=3 / weightb=1 / open_gop=0 / weightp=2 / keyint=300 / keyint_min=30 / scenecut=40 / intra_refresh=0 / rc_lookahead=50 / rc=crf / mbtree=1 / crf=18.0 / qcomp=0.60 / qpmin=0 / qpmax=69 / qpstep=4 / vbv_maxrate=62500 / vbv_bufsize=78125 / crf_max=0.0 / nal_hrd=none / filler=0 / ip_ratio=1.40 / aq=2:1.00 Default : Yes Forced : No Color range : Limited Color primaries : BT.709 Transfer characteristics : BT.709 Matrix coefficients : BT.709 Audio ID : 2 Format : AAC LC Format/Info : Advanced Audio Codec Low Complexity Codec ID : A_AAC-2 Duration : 45 min 39 s Bit rate : 221 kb/s Channel(s) : 2 channels Channel layout : L R Sampling rate : 48.0 kHz Frame rate : 46.875 FPS (1024 SPF) Compression mode : Lossy Delay relative to video : 3 ms Stream size : 72.3 MiB (6%) Title : [NSBC] Language : Japanese Default : Yes Forced : No ```

File list

  • Lupin no Musume ~Ai no Monogatari~ SP 720p HDTV AAC x264-NSBC.mkv (1.1 GiB)