Shingeki.No.Kyojin.S04E01.The.Other.Side.of.the.Ocean.1080p.NF.WEB-DL.DDP2.0.x264-Mughal125

Category:
Date:
2020-12-09 17:13 UTC
Submitter:
Seeders:
6
Information:
No information.
Leechers:
0
File size:
1.0 GiB
Completed:
1121
Info hash:
8b12dbd8d976a6ed0689eccbaaf9216cd6c1dfcd
File name......: Shingeki.No.Kyojin.S04E01.The.Other.Side.of.the.Ocean.1080p.NF.WEB-DL.DDP2.0.x264-Mughal125.mkv File size......: 1.01 GiB Duration.......: 00:23:57.541 (h:m:s) Video..........: AVC / 5800 kbps / 1080p / 23.976 fps / 1920x1080 / 16:9 / Main@L4 Audio..........: Japanese / E-AC-3 / 2.0 / 48 kHz / 224 kbps Subtitle(s)....: English, Arabic, Japanese (SDH), Portuguese (Brazillian), Russian, Spanish. Chapters.......: Yes (numbered) Source.........: Video - NF, Audio - AMZN, Subs - CR,NF Release.Date...: 08.12.2020 Notes..........: Comparison - https://slow.pics/c/AcQ1Ebzv Screenshot.....: https://imgbox.com/g/k22iVqyTlj __________________________________________________________________________________________________ Format : Matroska Format version : Version 4 File size : 1.01 GiB Duration : 23 min 57 s Overall bit rate mode : Variable Overall bit rate : 6 007 kb/s Movie name : S04E01 - The.Other.Side.of.the.Ocean - Mughal125 Encoded date : UTC 2020-12-08 10:16:31 Writing application : mkvmerge v51.0.0 ('I Wish') 64-bit Writing library : libebml v1.4.0 + libmatroska v1.6.2 Video ID : 1 Format : AVC Format/Info : Advanced Video Codec Format profile : Main@L4 Format settings : CABAC / 3 Ref Frames Format settings, CABAC : Yes Format settings, Reference : 3 frames Codec ID : V_MPEG4/ISO/AVC Duration : 23 min 57 s Bit rate mode : Variable Bit rate : 5 800 kb/s Maximum bit rate : 8 700 kb/s Width : 1 920 pixels Height : 1 080 pixels Display aspect ratio : 16:9 Frame rate mode : Constant Frame rate : 23.976 (24000/1001) FPS Color space : YUV Chroma subsampling : 4:2:0 Bit depth : 8 bits Scan type : Progressive Bits/(Pixel*Frame) : 0.117 Stream size : 991 MiB (96%) Writing library : x264 core 148 r2722 1b0121b Encoding settings : cabac=1 / ref=3 / deblock=1:0:0 / analyse=0x1:0x111 / me=umh / subme=10 / psy=1 / psy_rd=1.00:0.00 / mixed_ref=1 / me_range=24 / chroma_me=1 / trellis=2 / 8x8dct=0 / cqm=0 / deadzone=21,11 / fast_pskip=1 / chroma_qp_offset=-2 / threads=8 / lookahead_threads=1 / sliced_threads=0 / nr=0 / decimate=1 / interlaced=0 / bluray_compat=0 / stitchable=1 / constrained_intra=0 / bframes=2 / b_pyramid=0 / b_adapt=2 / b_bias=0 / direct=3 / weightb=1 / open_gop=0 / weightp=2 / keyint=250 / keyint_min=23 / scenecut=0 / intra_refresh=0 / rc_lookahead=48 / rc=2pass / mbtree=1 / bitrate=5800 / ratetol=1.0 / qcomp=0.50 / qpmin=6 / qpmax=51 / qpstep=4 / cplxblur=20.0 / qblur=0.5 / vbv_maxrate=8700 / vbv_bufsize=11600 / nal_hrd=vbr / filler=0 / ip_ratio=1.40 / aq=1:1.00 Language : Japanese Default : Yes Forced : No Audio ID : 2 Format : E-AC-3 Format/Info : Enhanced AC-3 Commercial name : Dolby Digital Plus Codec ID : A_EAC3 Duration : 23 min 55 s Bit rate mode : Constant Bit rate : 224 kb/s Channel(s) : 2 channels Channel layout : L R Sampling rate : 48.0 kHz Frame rate : 31.250 FPS (1536 SPF) Compression mode : Lossy Delay relative to video : 1 s 1 ms Stream size : 38.3 MiB (4%) Language : Japanese Service kind : Complete Main Default : Yes Forced : No Text #1 ID : 3 Format : ASS Codec ID : S_TEXT/ASS Codec ID/Info : Advanced Sub Station Alpha Duration : 23 min 47 s Bit rate : 90 b/s Count of elements : 235 Compression mode : Lossless Stream size : 15.8 KiB (0%) Language : English Default : Yes Forced : No Text #2 ID : 4 Format : ASS Codec ID : S_TEXT/ASS Codec ID/Info : Advanced Sub Station Alpha Duration : 23 min 46 s Bit rate : 113 b/s Count of elements : 255 Compression mode : Lossless Stream size : 19.8 KiB (0%) Language : Arabic Default : No Forced : No Text #3 ID : 5 Format : ASS Codec ID : S_TEXT/ASS Codec ID/Info : Advanced Sub Station Alpha Duration : 23 min 46 s Bit rate : 91 b/s Count of elements : 258 Compression mode : Lossless Stream size : 16.0 KiB (0%) Language : Spanish Default : No Forced : No Text #4 ID : 6 Format : UTF-8 Codec ID : S_TEXT/UTF8 Codec ID/Info : UTF-8 Plain Text Duration : 23 min 46 s Bit rate : 70 b/s Count of elements : 336 Stream size : 12.3 KiB (0%) Title : SDH Language : Japanese Default : No Forced : No Text #5 ID : 7 Format : ASS Codec ID : S_TEXT/ASS Codec ID/Info : Advanced Sub Station Alpha Duration : 23 min 46 s Bit rate : 104 b/s Count of elements : 272 Compression mode : Lossless Stream size : 18.2 KiB (0%) Title : Brazillian Language : Portuguese Default : No Forced : No Text #6 ID : 8 Format : ASS Codec ID : S_TEXT/ASS Codec ID/Info : Advanced Sub Station Alpha Duration : 23 min 46 s Bit rate : 165 b/s Count of elements : 272 Compression mode : Lossless Stream size : 28.8 KiB (0%) Language : Russian Default : No Forced : No Menu 00:00:00.000 : en:Chapter 01 00:10:00.000 : en:Chapter 02 00:20:00.000 : en:Chapter 03

File list

Don’t change tag making it your personal rip. Rip your own shit or leave it untouched. That’s called stealing
oWo...you changed the meta too...Seems like you know how to steal ..
NF WEB-DL, but you added your own stuff there?
Useless to post, *even if this is a supposed repost.* Wakanim is the best source for AOT, which is mainly what fansubbers are using, and have already dehardsubbed/encoded.
lmfao this release is a meme, like it's submitter.
>Wakanim is the best source for AOT, which is mainly what fansubbers are using, and have already dehardsubbed/encoded. you know the comparison in the description is good when it doesn't even include the best source
Got it two days ahead the NF release woah.