[Tess] Sarusuberi Miss Hokusai [BD 1920x1080 HEVC Dual-Audio AAC]

Category:
Date:
2020-12-06 19:48 UTC
Submitter:
Seeders:
2
Information:
No information.
Leechers:
0
File size:
7.0 GiB
Completed:
276
Info hash:
a740d5d65845a429a0bcf7321d1a4c90b7141f5d
Video Source: US BDMV Audio: qAAC @ q127 Subs: US BDMV PGS Uploader Notes: Experimenting with x265 encoding. Overall I will more than likely be using it going forward for a number of reasons. x265 is very good at maintaining detail particularly in dark scenes, I also found that x265 retains a lot more edge detail than x264. I had avoided x265 when it initially came around but the x265 encoder has been steadily maturing over recent years and I feel it's mature enough and widely supported enough that moving to it should be negligible from an end-user perspective. File sizes should stay close to the file sizes of my previous x264 encodes. My goal in moving to x265 is not to reduce file size but rather increase visual transparency and detail. Mediainfo: >General >Unique ID : 137961103954057113907789534715574583336 (0x67CA57959B98E4540E861DB880958028) >Complete name : [Tess] Sarusuberi Miss Hokusai [BD 1920x1080 HEVC Dual-Audio AAC][5A894258].mkv >Format : Matroska >Format version : Version 4 >File size : 7.02 GiB >Duration : 1 h 30 min >Overall bit rate : 11.1 Mb/s >Writing application : mkvmerge v51.0.0 ('I Wish') 64-bit >Writing library : libebml v1.4.0 + libmatroska v1.6.2 > >Video >ID : 1 >Format : HEVC >Format/Info : High Efficiency Video Coding >Format profile : Main 10@L4@Main >Codec ID : V_MPEGH/ISO/HEVC >Duration : 1 h 30 min >Bit rate : 9 957 kb/s >Width : 1 920 pixels >Height : 1 080 pixels >Display aspect ratio : 16:9 >Frame rate mode : Constant >Frame rate : 23.976 (24000/1001) FPS >Color space : YUV >Chroma subsampling : 4:2:0 >Bit depth : 10 bits >Bits/(Pixel*Frame) : 0.200 >Stream size : 6.29 GiB (90%) >Writing library : x265 3.4:[Linux][GCC 10.1.0][64 bit] 10bit >Encoding settings : cpuid=1111039 / frame-threads=4 / wpp / no-pmode / no-pme / no-psnr / no-ssim / log-level=2 / input-csp=1 / input-res=1920x1080 / interlace=0 / total-frames=0 / level-idc=0 / high-tier=1 / uhd-bd=0 / ref=4 / no-allow-non-conformance / no-repeat-headers / annexb / no-aud / no-hrd / info / hash=0 / no-temporal-layers / open-gop / min-keyint=23 / keyint=250 / gop-lookahead=0 / bframes=8 / b-adapt=2 / b-pyramid / bframe-bias=0 / rc-lookahead=25 / lookahead-slices=4 / scenecut=40 / hist-scenecut=0 / radl=0 / no-splice / no-intra-refresh / ctu=64 / min-cu-size=8 / rect / no-amp / max-tu-size=32 / tu-inter-depth=1 / tu-intra-depth=1 / limit-tu=0 / rdoq-level=2 / dynamic-rd=0.00 / no-ssim-rd / signhide / no-tskip / nr-intra=0 / nr-inter=0 / no-constrained-intra / no-strong-intra-smoothing / max-merge=3 / limit-refs=3 / limit-modes / me=3 / subme=3 / merange=57 / temporal-mvp / no-frame-dup / no-hme / weightp / no-weightb / no-analyze-src-pics / deblock=-1:-1 / no-sao / no-sao-non-deblock / rd=4 / selective-sao=0 / no-early-skip / rskip / no-fast-intra / no-tskip-fast / no-cu-lossless / no-b-intra / no-splitrd-skip / rdpenalty=0 / psy-rd=1.50 / psy-rdoq=4.00 / no-rd-refine / no-lossless / cbqpoffs=0 / crqpoffs=0 / rc=crf / crf=15.0 / qcomp=0.60 / qpstep=4 / stats-write=0 / stats-read=0 / ipratio=1.40 / pbratio=1.30 / aq-mode=3 / aq-strength=1.00 / cutree / zone-count=0 / no-strict-cbr / qg-size=32 / no-rc-grain / qpmax=69 / qpmin=0 / no-const-vbv / sar=1 / overscan=0 / videoformat=5 / range=0 / colorprim=2 / transfer=2 / colormatrix=2 / chromaloc=0 / display-window=0 / cll=0,0 / min-luma=0 / max-luma=1023 / log2-max-poc-lsb=8 / vui-timing-info / vui-hrd-info / slices=1 / no-opt-qp-pps / no-opt-ref-list-length-pps / no-multi-pass-opt-rps / scenecut-bias=0.05 / hist-threshold=0.01 / no-opt-cu-delta-qp / no-aq-motion / no-hdr10 / no-hdr10-opt / no-dhdr10-opt / no-idr-recovery-sei / analysis-reuse-level=0 / analysis-save-reuse-level=0 / analysis-load-reuse-level=0 / scale-factor=0 / refine-intra=0 / refine-inter=0 / refine-mv=1 / refine-ctu-distortion=0 / no-limit-sao / ctu-info=0 / no-lowpass-dct / refine-analysis-type=0 / copy-pic=1 / max-ausize-factor=1.0 / no-dynamic-refine / no-single-sei / no-hevc-aq / no-svt / no-field / qp-adaptation-range=1.00 / no-scenecut-aware-qpconformance-window-offsets / right=0 / bottom=0 / decoder-max-rate=0 >Default : Yes >Forced : No >Color range : Limited > >Audio #1 >ID : 2 >Format : AAC LC >Format/Info : Advanced Audio Codec Low Complexity >Codec ID : A_AAC-2 >Duration : 1 h 30 min >Bit rate : 576 kb/s >Channel(s) : 6 channels >Channel layout : C L R Ls Rs LFE >Sampling rate : 48.0 kHz >Frame rate : 46.875 FPS (1024 SPF) >Compression mode : Lossy >Delay relative to video : 20 ms >Stream size : 368 MiB (5%) >Language : Japanese >Default : Yes >Forced : No > >Audio #2 >ID : 3 >Format : AAC LC >Format/Info : Advanced Audio Codec Low Complexity >Codec ID : A_AAC-2 >Duration : 1 h 30 min >Bit rate : 551 kb/s >Channel(s) : 6 channels >Channel layout : C L R Ls Rs LFE >Sampling rate : 48.0 kHz >Frame rate : 46.875 FPS (1024 SPF) >Compression mode : Lossy >Delay relative to video : 20 ms >Stream size : 356 MiB (5%) >Language : English >Default : No >Forced : No > >Text #1 >ID : 4 >ID in the original source medium : 4609 (0x1201) >Format : PGS >Muxing mode : zlib >Codec ID : S_HDMV/PGS >Codec ID/Info : Picture based subtitle format used on BDs/HD-DVDs >Duration : 1 h 27 min >Bit rate : 16.5 kb/s >Count of elements : 1392 >Stream size : 10.3 MiB (0%) >Language : English >Default : Yes >Forced : No >Original source medium : Blu-ray > >Text #2 >ID : 5 >ID in the original source medium : 4608 (0x1200) >Format : PGS >Muxing mode : zlib >Codec ID : S_HDMV/PGS >Codec ID/Info : Picture based subtitle format used on BDs/HD-DVDs >Duration : 1 h 27 min >Bit rate : 27.0 kb/s >Count of elements : 1994 >Stream size : 16.9 MiB (0%) >Title : Dubtitles >Language : English >Default : No >Forced : No >Original source medium : Blu-ray > >Menu >00:00:00.000 : en:Chapter 01 >00:05:02.927 : en:Chapter 02 >00:10:59.950 : en:Chapter 03 >00:13:56.585 : en:Chapter 04 >00:15:54.119 : en:Chapter 05 >00:22:06.450 : en:Chapter 06 >00:25:54.302 : en:Chapter 07 >00:29:19.841 : en:Chapter 08 >00:33:20.081 : en:Chapter 09 >00:36:02.910 : en:Chapter 10 >00:38:50.578 : en:Chapter 11 >00:44:09.688 : en:Chapter 12 >00:48:15.142 : en:Chapter 13 >00:51:27.542 : en:Chapter 14 >00:55:12.600 : en:Chapter 15 >01:00:14.277 : en:Chapter 16 >01:04:29.490 : en:Chapter 17 >01:06:18.766 : en:Chapter 18 >01:09:14.316 : en:Chapter 19 >01:14:04.648 : en:Chapter 20 >01:17:43.408 : en:Chapter 21 >01:22:35.283 : en:Chapter 22 >01:26:32.312 : en:Chapter 23 > >

File list

  • [Tess] Sarusuberi Miss Hokusai [BD 1920x1080 HEVC Dual-Audio AAC][5A894258].mkv (7.0 GiB)
Thanks for movie!!
Can anyone seed this please