Lupin III The secret of Mamo {1978} UHD bd remux

Category:
Date:
2020-12-04 22:08 UTC
Submitter:
Seeders:
1
Information:
No information.
Leechers:
0
File size:
49.1 GiB
Completed:
69
Info hash:
319fb55c53bedcce30c6f04806b4cf6d78b22d92
Complete name : D:\for seeding\ルパン三世 ルパンVS複製人間 The secret of Mamo {1978} UHD bd remux.mkv File size : 49.1 GiB Duration : 1 h 42 min Overall bit rate mode : Variable Overall bit rate : 68.9 Mb/s Movie name : ルパン三世 ルパンVS複製人間 Encoded date : UTC 2020-12-04 10:43:02 Cover : Yes Attachments : cover art.jpg Video ID : 1 ID in the original source m : 4113 (0x1011) Format : HEVC Format/Info : High Efficiency Video Coding Format profile : Main 10@L5.1@High HDR format : SMPTE ST 2086, HDR10 compatible Codec ID : V_MPEGH/ISO/HEVC Duration : 1 h 42 min Bit rate : 61.0 Mb/s Width : 3 840 pixels Height : 2 160 pixels Display aspect ratio : 16:9 Frame rate mode : Constant Frame rate : 23.976 (24000/1001) FPS Color space : YUV Chroma subsampling : 4:2:0 (Type 2) Bit depth : 10 bits Bits/(Pixel*Frame) : 0.307 Stream size : 43.5 GiB (89%) Default : Yes Forced : No Color range : Limited Color primaries : BT.2020 Transfer characteristics : PQ Matrix coefficients : BT.2020 non-constant Mastering display color pri : BT.2020 Mastering display luminance : min: 0.0050 cd/m2, max: 1000 cd/m2 Maximum Content Light Level : 1000 cd/m2 Maximum Frame-Average Light : 200 cd/m2 Original source medium : Blu-ray Audio #1 ID : 2 ID in the original source m : 4352 (0x1100) Format : PCM Format settings : Little / Signed Codec ID : A_PCM/INT/LIT Duration : 1 h 42 min Bit rate mode : Constant Bit rate : 2 304 kb/s Channel(s) : 2 channels Sampling rate : 48.0 kHz Frame rate : 200.000 FPS (240 SPF) Bit depth : 24 bits Stream size : 1.64 GiB (3%) Language : Japanese Default : Yes Forced : No Original source medium : Blu-ray Audio #2 ID : 3 ID in the original source m : 4353 (0x1101) Format : PCM Format settings : Little / Signed Codec ID : A_PCM/INT/LIT Duration : 1 h 42 min Bit rate mode : Constant Bit rate : 2 304 kb/s Channel(s) : 2 channels Sampling rate : 48.0 kHz Frame rate : 200.000 FPS (240 SPF) Bit depth : 24 bits Stream size : 1.64 GiB (3%) Language : Japanese Default : No Forced : No Original source medium : Blu-ray Audio #3 ID : 4 ID in the original source m : 4354 (0x1102) Format : DTS XLL Format/Info : Digital Theater Systems Commercial name : DTS-HD Master Audio Codec ID : A_DTS Duration : 1 h 42 min Bit rate mode : Variable Bit rate : 3 291 kb/s Channel(s) : 6 channels Channel layout : C L R Ls Rs LFE Sampling rate : 48.0 kHz Frame rate : 93.750 FPS (512 SPF) Bit depth : 24 bits Compression mode : Lossless Stream size : 2.35 GiB (5%) Language : Japanese Default : No Forced : No Original source medium : Blu-ray Text #1 ID : 5 Format : ASS Codec ID : S_TEXT/ASS Codec ID/Info : Advanced Sub Station Alpha Duration : 1 h 39 min Bit rate : 96 b/s Count of elements : 1284 Compression mode : Lossless Stream size : 70.7 KiB (0%) Title : eng saa Language : English Default : Yes Forced : No Text #2 ID : 6 Format : UTF-8 Codec ID : S_TEXT/UTF8 Codec ID/Info : UTF-8 Plain Text Duration : 1 h 37 min Bit rate : 42 b/s Count of elements : 980 Stream size : 30.1 KiB (0%) Title : eng srt Language : English Default : No Forced : No Menu 00:00:00.000 : en:Chapter 01 00:03:57.654 : en:Chapter 02 00:11:17.677 : en:Chapter 03 00:18:24.728 : en:Chapter 04 00:28:53.314 : en:Chapter 05 00:38:49.827 : en:Chapter 06 00:44:17.446 : en:Chapter 07 00:51:29.878 : en:Chapter 08 01:09:26.453 : en:Chapter 09 01:17:14.880 : en:Chapter 10 01:35:48.492 : en:Chapter 11 01:40:14.550 : en:Chapter 12

File list

  • ルパン三世 ルパンVS複製人間 The secret of Mamo {1978} UHD bd remux.mkv (49.1 GiB)
awesome, thanks
This 'Remux' actually is good. Granted last time I saw this movie was off a bootlegged VHS sooo... XD From what I've seen so far as I stream/download it.

qsxwdc (uploader)

User
NodMan you will enjoy it more in 4k
@qsxwdc No doubt. My issue with 'Remuxes' is sometimes the color pallet is way too wack heh. Which is why I'm skeptical about some of themz, sorry. However this one's colors aren't ramped up that badly. So Danke schön.
VHS, upscaled to 4K. Thought 1080p was enough...

qsxwdc (uploader)

User
NodMan bitte
Lupin Goodness!!
@qsxwdc, any chance you have Ashita No Joe 2 UHD 4k?

qsxwdc (uploader)

User
glm8892] I am sorry, I don't have it
@qsxwdc, no problem, thank you for the UHD upload.
@qsxwdc Sorry, it's been three days stuck at 99.1% and not only me, also the others who are downloading it.

qsxwdc (uploader)

User
YalikT14 I’m going to do my very best,

qsxwdc (uploader)

User
YalikT14 do not forget to seed

qsxwdc (uploader)

User
Don't forget to seed guys ?
Can anybody reseed it again?