[CBT-Mysteria] Kaichou wa Maid-sama! (BD 720p Hi10 FLAC)

Category:
Date:
2020-12-02 17:45 UTC
Submitter:
Seeders:
2
Information:
Leechers:
3
File size:
13.5 GiB
Completed:
224
Info hash:
8fdaa1001f51fe6b55b527106012b251a7d6f2c7
**~ Mysteria: Decided to release this under CBT's tag as this isn't my final release. Did a TLC and heavy QC. A heavy QC was done because apparently, Coalgirls had almost every sentence spaced out (empty spaces) for some reason. Fixed numerous ugly line breaks. Re-timed TS. Base is Coalgirls. OP/ED is from FFFpeeps. I plan to do this in summer of 2021 with dual audio and my own TS, so the TS from Coalgirls was left as is. The LaLa Special is from FFF in DVD-480p.** **Title: Maid-sama! (Kaichou wa Maid-sama!)** *Original Source: VCB-studio* *Video Format: x264 AVC 10bit mkv* *Audio Codec: Japanese 2.0* **(FLAC-16)** *Subtitle Source: **Coalgirls/FFF (modified)** *Duration: 24 minutes per episode* *Subtitle: English* *Resolution/Quality: 1280 x 720 * *Genre: School, Comedy, Slice of Life* *Age Rating: PG-13* **Screens:** ![alt text](https://i.ibb.co/6wMLjVC/CBT-Mysteria-Kaichou-wa-Maid-sama-S01-E01-BD-720p-Hi10-FLAC-308-C8-BB5-001-12990.png) ![alt text](https://i.ibb.co/KsCNK5y/CBT-Mysteria-Kaichou-wa-Maid-sama-S01-E01-BD-720p-Hi10-FLAC-308-C8-BB5-001-7701.png) ![alt text](https://i.ibb.co/YjDsNz6/CBT-Mysteria-Kaichou-wa-Maid-sama-S01-E01-BD-720p-Hi10-FLAC-308-C8-BB5-001-9989.png) ![alt text](https://i.ibb.co/tqJvXmq/CBT-Mysteria-Kaichou-wa-Maid-sama-S01-E01-BD-720p-Hi10-FLAC-308-C8-BB5-001-24999.png) ![alt text](https://i.ibb.co/n1yrpZc/CBT-Mysteria-Kaichou-wa-Maid-sama-S01-E01-BD-720p-Hi10-FLAC-308-C8-BB5-001-1217.png) ![alt text](https://i.ibb.co/tzk7nG3/CBT-Mysteria-Kaichou-wa-Maid-sama-S01-E01-BD-720p-Hi10-FLAC-308-C8-BB5-001-33796.png) **Media Info:** ``` General Unique ID : 78230346832197990364279898028924745011 (0x3ADA9DE37C1D577F65E479B091543533) Complete name : C:\Users\Mysteria\Downloads\[CBT-Mysteria] Kaichou wa Maid-sama! (BD 720p Hi10 FLAC)\[CBT-Mysteria] Kaichou wa Maid-sama! - S01E01 (BD 720p Hi10 FLAC) [308C8BB5].mkv Format : Matroska Format version : Version 4 File size : 445 MiB Duration : 24 min 13 s Overall bit rate mode : Variable Overall bit rate : 2 566 kb/s Movie name : [CBT-Mysteria] Kaichou wa Maid-sama! - S01E01 (BD 720p Hi10 FLAC) Encoded date : UTC 2020-11-19 01:25:15 Writing application : mkvmerge v51.0.0 ('I Wish') 64-bit Writing library : libebml v1.4.0 + libmatroska v1.6.2 Attachments : Acme 7 Wide Bold.ttf / ANDYB.TTF / AnisetteStdPetite-Demi.ttf / Brianne_s_hand.ttf / frank.ttf / HighlanderStd-Bold.otf / HighlanderStd-BoldItalic.otf / KGShadowOfTheDay.ttf / LeafletBold.otf / LEHN037.ttf / Maid ep title.ttf / Maid logo EB.ttf / Maid logo UB.ttf / Maid TS 2 Hsc.ttf / Maid TS 3.ttf / Maid TS EB.ttf / NOTE THIS.TTF / OptimaLTStd.otf / SubSymbol.ttf / THERIFV2.TTF / Yuru Yuri ep.ttf / Yuru Yuri sign.ttf Video ID : 1 Format : AVC Format/Info : Advanced Video Codec Format profile : High 10@L5 Format settings : CABAC / 13 Ref Frames Format settings, CABAC : Yes Format settings, Reference frames : 13 frames Codec ID : V_MPEG4/ISO/AVC Duration : 24 min 13 s Bit rate : 1 845 kb/s Width : 1 280 pixels Height : 720 pixels Display aspect ratio : 16:9 Frame rate mode : Constant Frame rate : 23.976 (24000/1001) FPS Color space : YUV Chroma subsampling : 4:2:0 Bit depth : 10 bits Scan type : Progressive Bits/(Pixel*Frame) : 0.084 Stream size : 320 MiB (72%) Writing library : x264 core 142 r2409+42 04be48a tMod [10-bit@4:2:0 X86_64] Encoding settings : cabac=1 / ref=13 / deblock=1:-1:-1 / analyse=0x3:0x133 / me=tesa / subme=10 / psy=1 / fade_compensate=0.00 / psy_rd=0.60:0.10 / mixed_ref=1 / me_range=16 / chroma_me=1 / trellis=2 / 8x8dct=1 / cqm=0 / deadzone=21,11 / fast_pskip=0 / chroma_qp_offset=-3 / threads=16 / lookahead_threads=4 / sliced_threads=0 / nr=0 / decimate=0 / interlaced=0 / bluray_compat=0 / constrained_intra=0 / fgo=0 / bframes=10 / b_pyramid=2 / b_adapt=2 / b_bias=0 / direct=3 / weightb=1 / open_gop=0 / weightp=2 / keyint=720 / keyint_min=1 / scenecut=40 / intra_refresh=0 / rc=crf / mbtree=0 / crf=17.0000 / qcomp=0.70 / qpmin=0:0:0 / qpmax=81:81:81 / qpstep=4 / ip_ratio=1.40 / pb_ratio=1.30 / aq=3:0.80 / aq-sensitivity=10.00 / aq-factor=1.00:1.00:1.00 / aq2=0 / aq3=0 Language : Japanese Default : Yes Forced : No Color range : Limited Matrix coefficients : BT.709 Audio ID : 2 Format : FLAC Format/Info : Free Lossless Audio Codec Codec ID : A_FLAC Duration : 24 min 13 s Bit rate mode : Variable Bit rate : 707 kb/s Channel(s) : 2 channels Channel layout : L R Sampling rate : 48.0 kHz Frame rate : 11.719 FPS (4096 SPF) Bit depth : 16 bits Compression mode : Lossless Stream size : 123 MiB (28%) Title : Japanese 2.0 FLAC Writing library : libFLAC 1.2.1 (UTC 2007-09-17) Language : Japanese Default : Yes Forced : No Text ID : 3 Format : ASS Codec ID : S_TEXT/ASS Codec ID/Info : Advanced Sub Station Alpha Duration : 24 min 12 s Bit rate : 193 b/s Count of elements : 518 Compression mode : Lossless Stream size : 34.2 KiB (0%) Title : Coalgirls/FFF (modified) Language : English Default : Yes Forced : No Menu 00:00:00.000 : en:Opening 00:01:31.007 : en:Part A 00:13:07.953 : en:Part B 00:22:10.954 : en:Ending 00:23:40.961 : en:Preview ```

File list

  • [CBT-Mysteria] Kaichou wa Maid-sama! (BD 720p Hi10 FLAC)
    • NC
      • Kaichou wa Maid-sama!-NCED1.mkv (89.9 MiB)
      • Kaichou wa Maid-sama!-NCED2.mkv (56.1 MiB)
      • Kaichou wa Maid-sama!-NCOP.mkv (81.7 MiB)
    • [CBT-Mysteria] Kaichou wa Maid-sama! - S01E01 (BD 720p Hi10 FLAC) [308C8BB5].mkv (444.6 MiB)
    • [CBT-Mysteria] Kaichou wa Maid-sama! - S01E02 (BD 720p Hi10 FLAC) [739330F8].mkv (472.4 MiB)
    • [CBT-Mysteria] Kaichou wa Maid-sama! - S01E03 (BD 720p Hi10 FLAC) [5F734C3D].mkv (455.4 MiB)
    • [CBT-Mysteria] Kaichou wa Maid-sama! - S01E04 (BD 720p Hi10 FLAC) [D69DBDE5].mkv (507.5 MiB)
    • [CBT-Mysteria] Kaichou wa Maid-sama! - S01E05 (BD 720p Hi10 FLAC) [6F0FADB0].mkv (512.3 MiB)
    • [CBT-Mysteria] Kaichou wa Maid-sama! - S01E06 (BD 720p Hi10 FLAC) [C78940BA].mkv (513.6 MiB)
    • [CBT-Mysteria] Kaichou wa Maid-sama! - S01E07 (BD 720p Hi10 FLAC) [DEFDF665].mkv (477.4 MiB)
    • [CBT-Mysteria] Kaichou wa Maid-sama! - S01E08 (BD 720p Hi10 FLAC) [A21C0D86].mkv (487.7 MiB)
    • [CBT-Mysteria] Kaichou wa Maid-sama! - S01E09 (BD 720p Hi10 FLAC) [CD5C904E].mkv (547.9 MiB)
    • [CBT-Mysteria] Kaichou wa Maid-sama! - S01E10 (BD 720p Hi10 FLAC) [1C4CAD89].mkv (480.7 MiB)
    • [CBT-Mysteria] Kaichou wa Maid-sama! - S01E11 (BD 720p Hi10 FLAC) [ECCD491B].mkv (466.9 MiB)
    • [CBT-Mysteria] Kaichou wa Maid-sama! - S01E12 (BD 720p Hi10 FLAC) [F2D1C7D9].mkv (529.9 MiB)
    • [CBT-Mysteria] Kaichou wa Maid-sama! - S01E13 (BD 720p Hi10 FLAC) [83A6977C].mkv (479.2 MiB)
    • [CBT-Mysteria] Kaichou wa Maid-sama! - S01E14 (BD 720p Hi10 FLAC) [EA73EB2A].mkv (450.6 MiB)
    • [CBT-Mysteria] Kaichou wa Maid-sama! - S01E15 (BD 720p Hi10 FLAC) [4AB53642].mkv (466.0 MiB)
    • [CBT-Mysteria] Kaichou wa Maid-sama! - S01E16 (BD 720p Hi10 FLAC) [AB64C217].mkv (533.3 MiB)
    • [CBT-Mysteria] Kaichou wa Maid-sama! - S01E17 (BD 720p Hi10 FLAC) [D2434E3F].mkv (614.1 MiB)
    • [CBT-Mysteria] Kaichou wa Maid-sama! - S01E18 (BD 720p Hi10 FLAC) [745F42C7].mkv (541.1 MiB)
    • [CBT-Mysteria] Kaichou wa Maid-sama! - S01E19 (BD 720p Hi10 FLAC) [A65638E7].mkv (527.3 MiB)
    • [CBT-Mysteria] Kaichou wa Maid-sama! - S01E20 (BD 720p Hi10 FLAC)[A65638E7].mkv (484.9 MiB)
    • [CBT-Mysteria] Kaichou wa Maid-sama! - S01E21 (BD 720p Hi10 FLAC) [A65638E7].mkv (490.5 MiB)
    • [CBT-Mysteria] Kaichou wa Maid-sama! - S01E22 (BD 720p Hi10 FLAC) [E4E17FEA].mkv (615.0 MiB)
    • [CBT-Mysteria] Kaichou wa Maid-sama! - S01E23 (BD 720p Hi10 FLAC) [5E77402F].mkv (545.4 MiB)
    • [CBT-Mysteria] Kaichou wa Maid-sama! - S01E24 (BD 720p Hi10 FLAC) [43280594].mkv (476.9 MiB)
    • [CBT-Mysteria] Kaichou wa Maid-sama! - S01E25 (BD 720p Hi10 FLAC)[D2434E3F].mkv (610.2 MiB)
    • [CBT-Mysteria] Kaichou wa Maid-sama! - S01E26 (BD 720p Hi10 FLAC) [FB4613F4].mkv (497.1 MiB)
    • [CBT-Mysteria] Kaichou wa Maid-sama! - S01E27 (BD 720p Hi10 FLAC).mkv (257.4 MiB)
    • [FFFpeeps] Kaichou wa Maid-sama LaLa Special [DVD][480p-AAC][667F3C60].mkv (133.8 MiB)
I think you meant Summer 2021.

_Edge_ (uploader)

User
thanks for the update basheer
> (BD 720p Hi10 FLAC) > Resolution/Quality: 1920x1080 or 1080p HD Hmm..
There is already a Mysteria version of this floating about elsewhere, it's 27.55gb and has got both the specials, it is also 1080p. But in your description of this one you say that this is just in the interim before you do a full version, is the other one floating about another first try? It was posted on the 1st of August if that helps? Just don't want you to do something twice when you don't need to and could be concentrating on encoding something else! :)
@oneoffone The older one was a remux with iAHD video which is worse than other existing encodes. Mysteria deleted that and is still working on it. That was a v0, this is like a v0.5 (hence it's not on her account) and v1 is still in progress.
i am also a fan of cbt
Thanks @SeaSmoke thought I was going mad for a minute there lol *edit: Just looked at the older one again and it is hevc with opus audio and doesn't say remux. Is that the same one you are on about? Sorry, not up to scratch with my video formats yet...

_Edge_ (uploader)

User
@anor4k same
**@oneoffone** The version with Opus audio is the iAHD remux. Same one.

_Edge_ (uploader)

User
Lol lol ingenious bad
@oneoffone im pretty sure this has both specials too but one of them is called episode 27. MAL says there was only 26 episodes so I'm assuming 27 must be a special but I forget so can't say.