[naiyas] D.Gray-man HALLOW (BS-J 1920x1080 x264 10bit AAC Dual Audio)

Category:
Date:
2020-11-24 12:12 UTC
Submitter:
Seeders:
4
Information:
Leechers:
0
File size:
19.5 GiB
Completed:
172
Info hash:
2f0f05d9b7c486225923494c6491bc10868f4e42
![alt text](https://i.slow.pics/HfOXxe0V.png) --- **A/V & subs source:** [**_[SOFCJ-Raws]_**](https://nyaa.si/view/1005247)[**_[LostYears]_**](https://nyaa.si/view/906326) --- ##### **Screenshots:** ![alt text](https://i.slow.pics/cYDoLv5F.png) ![alt text](https://i.slow.pics/7XMa8BKr.png) ![alt text](https://i.slow.pics/LL33ntpb.png) ![alt text](https://i.slow.pics/yAAOtwmm.png) --- **Media info:** ``` General Unique ID : 231186248351608388464165731734082814354 (0xADECDA126387CFB42049012999C40192) Complete name : [naiyas] D.Gray-man HALLOW - 08 (BS-J 1920x1080 x264 10bit AAC Dual Audio).mkv Format : Matroska Format version : Version 4 / Version 2 File size : 1.79 GiB Duration : 23 min 50 s Overall bit rate : 10.8 Mb/s Movie name : [naiyas] D.Gray-man HALLOW - 08 (BS-J 1920x1080 x264 10bit AAC Dual Audio) Encoded date : UTC 2020-11-24 07:32:25 Writing application : mkvmerge v51.0.0 ('I Wish') 64-bit Writing library : libebml v1.4.0 + libmatroska v1.6.2 Attachments : FjordOne-Regular.otf / PRISTINA.TTF / Signika-Regular.otf / CantataOne-Regular.ttf Video ID : 1 Format : AVC Format/Info : Advanced Video Codec Format profile : High 10@L5 Format settings : CABAC / 4 Ref Frames Format settings, CABAC : Yes Format settings, Reference fra : 4 frames Codec ID : V_MPEG4/ISO/AVC Duration : 23 min 49 s Bit rate : 10.3 Mb/s Width : 1 920 pixels Height : 1 080 pixels Display aspect ratio : 16:9 Frame rate mode : Constant Frame rate : 23.976 (24000/1001) FPS Color space : YUV Chroma subsampling : 4:2:0 Bit depth : 10 bits Scan type : Progressive Bits/(Pixel*Frame) : 0.208 Stream size : 1.72 GiB (96%) Title : h264@10bit-BS-JAPAN-1080p Writing library : x264 core 152 r2851kMod ba24899 Encoding settings : cabac=1 / ref=4 / deblock=1:1:-1 / analyse=0x3:0x133 / me=umh / subme=9 / psy=1 / fade_compensate=0.00 / psy_rd=1.00:0.00 / mixed_ref=1 / me_range=32 / chroma_me=1 / trellis=2 / 8x8dct=1 / cqm=0 / deadzone=21,11 / fast_pskip=1 / chroma_qp_offset=-2 / threads=12 / lookahead_threads=2 / sliced_threads=0 / nr=0 / decimate=1 / interlaced=0 / bluray_compat=0 / constrained_intra=0 / bframes=9 / b_pyramid=2 / b_adapt=2 / b_bias=0 / direct=1 / weightb=1 / open_gop=0 / weightp=2 / keyint=240 / keyint_min=23 / scenecut=40 / intra_refresh=0 / rc=crf / mbtree=0 / crf=16.0000 / qcomp=0.72 / qpmin=0 / qpmax=81 / qpstep=4 / ip_ratio=1.40 / pb_ratio=1.30 / aq=1:0.85 Language : Japanese Default : Yes Forced : No Color range : Limited Color primaries : BT.709 Transfer characteristics : BT.709 Matrix coefficients : BT.709 Audio #1 ID : 2 Format : AAC LC Format/Info : Advanced Audio Codec Low Complexity Codec ID : A_AAC-2 Duration : 23 min 49 s Bit rate : 192 kb/s Channel(s) : 2 channels Channel layout : L R Sampling rate : 44.1 kHz Frame rate : 43.066 FPS (1024 SPF) Compression mode : Lossy Delay relative to video : 16 ms Stream size : 33.4 MiB (2%) Title : [LostYears] Language : English Default : Yes Forced : No Audio #2 ID : 3 Format : AAC LC Format/Info : Advanced Audio Codec Low Complexity Codec ID : A_AAC-2 Duration : 23 min 49 s Bit rate : 214 kb/s Channel(s) : 2 channels Channel layout : L R Sampling rate : 48.0 kHz Frame rate : 46.875 FPS (1024 SPF) Compression mode : Lossy Delay relative to video : 9 ms Stream size : 36.5 MiB (2%) Title : AAC@BS-JAPAN Language : Japanese Default : No Forced : No Text #1 ID : 4 Format : ASS Codec ID : S_TEXT/ASS Codec ID/Info : Advanced Sub Station Alpha Duration : 19 min 18 s Bit rate : 1 460 b/s Count of elements : 2037 Compression mode : Lossless Stream size : 207 KiB (0%) Title : Signs & Songs Language : English Default : Yes Forced : No Text #2 ID : 5 Format : ASS Codec ID : S_TEXT/ASS Codec ID/Info : Advanced Sub Station Alpha Duration : 23 min 43 s Bit rate : 1 278 b/s Count of elements : 2347 Compression mode : Lossless Stream size : 222 KiB (0%) Title : Dialogue Language : English Default : No Forced : No Menu 00:00:00.000 : en:Intro 00:04:29.936 : en:OP 00:05:59.901 : en:Part A 00:12:34.920 : en:Eyecatch 00:12:38.841 : en:Part B 00:22:20.839 : en:ED 00:23:34.871 : en:Preview

File list

  • [naiyas] D.Gray-man HALLOW (BS-J 1920x1080 x264 10bit AAC Dual Audio)
    • NCED
      • [naiyas] D.Gray-man HALLOW ED (BS-J 1920x1080 x264 10bit AAC).mkv (69.5 MiB)
      • [naiyas] D.Gray-man HALLOW OP (BS-J 1920x1080 x264 10bit AAC).mkv (210.6 MiB)
    • [naiyas] D.Gray-man HALLOW - 01 (BS-J 1920x1080 x264 10bit AAC Dual Audio).mkv (1.4 GiB)
    • [naiyas] D.Gray-man HALLOW - 02 (BS-J 1920x1080 x264 10bit AAC Dual Audio).mkv (1.4 GiB)
    • [naiyas] D.Gray-man HALLOW - 03 (BS-J 1920x1080 x264 10bit AAC Dual Audio).mkv (1.4 GiB)
    • [naiyas] D.Gray-man HALLOW - 04 (BS-J 1920x1080 x264 10bit AAC Dual Audio).mkv (1.5 GiB)
    • [naiyas] D.Gray-man HALLOW - 05 (BS-J 1920x1080 x264 10bit AAC Dual Audio).mkv (1.4 GiB)
    • [naiyas] D.Gray-man HALLOW - 06 (BS-J 1920x1080 x264 10bit AAC Dual Audio).mkv (1.4 GiB)
    • [naiyas] D.Gray-man HALLOW - 07 (BS-J 1920x1080 x264 10bit AAC Dual Audio).mkv (1.5 GiB)
    • [naiyas] D.Gray-man HALLOW - 08 (BS-J 1920x1080 x264 10bit AAC Dual Audio).mkv (1.8 GiB)
    • [naiyas] D.Gray-man HALLOW - 09 (BS-J 1920x1080 x264 10bit AAC Dual Audio).mkv (1.7 GiB)
    • [naiyas] D.Gray-man HALLOW - 10 (BS-J 1920x1080 x264 10bit AAC Dual Audio).mkv (1.4 GiB)
    • [naiyas] D.Gray-man HALLOW - 11 (BS-J 1920x1080 x264 10bit AAC Dual Audio).mkv (1.5 GiB)
    • [naiyas] D.Gray-man HALLOW - 12 (BS-J 1920x1080 x264 10bit AAC Dual Audio).mkv (1.6 GiB)
    • [naiyas] D.Gray-man HALLOW - 13 END (BS-J 1920x1080 x264 10bit AAC Dual Audio).mkv (1.3 GiB)