Berserk The Golden Age Arc I (2012) BD 1080p.x265.Tri-Audio.Ita.Eng.Jap [Rady]

Category:
Date:
2020-11-21 22:41 UTC
Submitter:
Seeders:
1
Information:
No information.
Leechers:
3
File size:
3.2 GiB
Completed:
36
Info hash:
3f75a23f59323998c097b3cc5acfc6b8a489c8d9
General Unique ID : 247034933800061593908831829790841378974 (0xB9D93297FACB9706386206CBA100189E) Complete name : D:\Nuova cartella\Berserk The Golden Age Arc I (2012) 1080p.x265.Tri-Audio.Ita.Eng.Jap [Rady].mkv Format : Matroska Format version : Version 4 File size : 3.25 GiB Duration : 1 h 16 min Overall bit rate : 6 061 kb/s Movie name : Berserk The Golden Age Arc I Encoded date : UTC 2020-05-28 14:05:49 Writing application : mkvmerge v46.0.0 ('No Deeper Escape') 64-bit Writing library : libebml v1.3.10 + libmatroska v1.5.2 Video ID : 1 Format : HEVC Format/Info : High Efficiency Video Coding Format profile : Main 10@L4@Main Codec ID : V_MPEGH/ISO/HEVC Duration : 1 h 16 min Bit rate : 2 594 kb/s Width : 1 920 pixels Height : 816 pixels Display aspect ratio : 2.35:1 Frame rate mode : Constant Frame rate : 23.976 (24000/1001) FPS Color space : YUV Chroma subsampling : 4:2:0 Bit depth : 10 bits Bits/(Pixel*Frame) : 0.069 Stream size : 1.39 GiB (43%) Writing library : x265 3.2.1+2-09f3b1d9349a:[Windows][MSVC 1923][64 bit] 10bit Default : Yes Forced : No Audio #1 ID : 2 Format : AAC LC Format/Info : Advanced Audio Codec Low Complexity Codec ID : A_AAC-2 Duration : 1 h 16 min Bit rate : 991 kb/s Channel(s) : 6 channels Channel layout : C L R Ls Rs LFE Sampling rate : 48.0 kHz Frame rate : 46.875 FPS (1024 SPF) Compression mode : Lossy Delay relative to video : 9 ms Stream size : 543 MiB (16%) Language : English Default : Yes Forced : No Audio #2 ID : 3 Format : AAC LC Format/Info : Advanced Audio Codec Low Complexity Codec ID : A_AAC-2 Duration : 1 h 16 min Bit rate : 965 kb/s Channel(s) : 6 channels Channel layout : C L R Ls Rs LFE Sampling rate : 48.0 kHz Frame rate : 46.875 FPS (1024 SPF) Compression mode : Lossy Delay relative to video : 9 ms Stream size : 529 MiB (16%) Language : Japanese Default : No Forced : No Audio #3 ID : 5 Format : DTS Format/Info : Digital Theater Systems Codec ID : A_DTS Duration : 1 h 16 min Bit rate mode : Constant Bit rate : 1 509 kb/s Channel(s) : 6 channels Channel layout : C L R Ls Rs LFE Sampling rate : 48.0 kHz Frame rate : 93.750 FPS (512 SPF) Bit depth : 24 bits Compression mode : Lossy Delay relative to video : 9 ms Stream size : 828 MiB (25%) Title : Audio Italiano 5.1 Dts Language : Italian Default : No Forced : Yes Text #1 ID : 4 Format : PGS Muxing mode : zlib Codec ID : S_HDMV/PGS Codec ID/Info : Picture based subtitle format used on BDs/HD-DVDs Duration : 1 h 10 min Bit rate : 19.6 kb/s Count of elements : 1386 Stream size : 9.83 MiB (0%) Language : English Default : No Forced : No Text #2 ID : 6 Format : UTF-8 Codec ID : S_TEXT/UTF8 Codec ID/Info : UTF-8 Plain Text Duration : 44 min 53 s Bit rate : 0 b/s Count of elements : 5 Stream size : 277 Bytes (0%) Title : Sottotitoli Cartelli Language : Italian Default : Yes Forced : Yes Text #3 ID : 7 Format : UTF-8 Codec ID : S_TEXT/UTF8 Codec ID/Info : UTF-8 Plain Text Duration : 1 h 10 min Bit rate : 47 b/s Count of elements : 608 Stream size : 24.3 KiB (0%) Title : Sottotitoli Dialoghi Language : Italian Default : No Forced : No

File list

  • Berserk The Golden Age Arc I (2012) 1080p.x265.Tri-Audio.Ita.Eng.Jap [Rady].mkv (3.2 GiB)