Golden Boy OVA 1995 480p.x264.Tri-Audio.Ita.Eng.Jap [Rady]

Category:
Date:
2020-11-21 21:27 UTC
Submitter:
Seeders:
0
Information:
No information.
Leechers:
8
File size:
2.4 GiB
Completed:
91
Info hash:
331e4fc0f40b634bc4fc45a5cf95e48f8ff90957
General Unique ID : 1392081105370698542602840905096937717 (0x10C1AE5C65807C0B5CB6C657458C0F5) Complete name : D:\Nuova cartella\Golden Boy OVA 1995 480p.x264.Tri-Audio.Ita.Eng.Jap [Rady]\Golden Boy 1 480p.x264.Tri-Audio.Ita.Eng.Jap [Rady].mkv Format : Matroska Format version : Version 4 File size : 434 MiB Duration : 29 min 30 s Overall bit rate : 2 055 kb/s Movie name : Golden Boy 1 Encoded date : UTC 2020-08-17 22:02:34 Writing application : mkvmerge v48.0.0 (‘Fortress Around Your Heart’) 64-bit Writing library : libebml v1.4.0 + libmatroska v1.6.0 Video ID : 1 Format : AVC Format/Info : Advanced Video Codec Format profile : High@L3.1 Format settings : CABAC / 4 Ref Frames Format settings, CABAC : Yes Format settings, Reference frames : 4 frames Codec ID : V_MPEG4/ISO/AVC Duration : 29 min 30 s Bit rate : 1 610 kb/s Width : 1 024 pixels Height : 768 pixels Display aspect ratio : 4:3 Frame rate mode : Variable Frame rate : 28.082 FPS Original frame rate : 23.976 (24000/1001) FPS Color space : YUV Chroma subsampling : 4:2:0 Bit depth : 8 bits Scan type : Progressive Bits/(Pixel*Frame) : 0.073 Stream size : 340 MiB (78%) Writing library : x264 core 148 r2638 7599210 Encoding settings : cabac=1 / ref=3 / deblock=1:1:2 / analyse=0x3:0x113 / me=hex / subme=7 / psy=1 / psy_rd=1.00:0.00 / mixed_ref=1 / me_range=16 / chroma_me=1 / trellis=1 / 8x8dct=1 / cqm=0 / deadzone=21,11 / fast_pskip=1 / chroma_qp_offset=-2 / threads=12 / lookahead_threads=2 / sliced_threads=0 / nr=0 / decimate=1 / interlaced=0 / bluray_compat=0 / constrained_intra=0 / bframes=3 / b_pyramid=2 / b_adapt=1 / b_bias=0 / direct=1 / weightb=1 / open_gop=0 / weightp=2 / keyint=240 / keyint_min=23 / scenecut=40 / intra_refresh=0 / rc_lookahead=40 / rc=crf / mbtree=1 / crf=22.0 / qcomp=0.60 / qpmin=0 / qpmax=69 / qpstep=4 / ip_ratio=1.40 / aq=1:1.00 Language : Japanese Default : Yes Forced : No Audio #1 ID : 2 Format : AC-3 Format/Info : Audio Coding 3 Commercial name : Dolby Digital Codec ID : A_AC3 Duration : 28 min 53 s Bit rate mode : Constant Bit rate : 192 kb/s Channel(s) : 2 channels Channel layout : L R Sampling rate : 48.0 kHz Frame rate : 31.250 FPS (1536 SPF) Compression mode : Lossy Delay relative to video : 24 ms Stream size : 39.7 MiB (9%) Title : Italiano Language : Italian Service kind : Complete Main Default : Yes Forced : No Audio #2 ID : 3 Format : AAC LC Format/Info : Advanced Audio Codec Low Complexity Codec ID : A_AAC-2 Duration : 28 min 53 s Bit rate : 128 kb/s Channel(s) : 2 channels Channel layout : L R Sampling rate : 48.0 kHz Frame rate : 46.875 FPS (1024 SPF) Compression mode : Lossy Delay relative to video : 2 ms Stream size : 26.4 MiB (6%) Title : Giapponese Language : Japanese Default : No Forced : No Audio #3 ID : 4 Format : AAC LC Format/Info : Advanced Audio Codec Low Complexity Codec ID : A_AAC-2 Duration : 28 min 53 s Bit rate : 128 kb/s Channel(s) : 2 channels Channel layout : L R Sampling rate : 48.0 kHz Frame rate : 46.875 FPS (1024 SPF) Compression mode : Lossy Delay relative to video : 2 ms Stream size : 26.5 MiB (6%) Title : Inglese Language : English Default : No Forced : No Text #1 ID : 5 Format : ASS Codec ID : S_TEXT/ASS Codec ID/Info : Advanced Sub Station Alpha Duration : 20 min 35 s Bit rate : 7 b/s Count of elements : 17 Compression mode : Lossless Stream size : 1.06 KiB (0%) Title : Cartelli [ASS] Language : Italian Default : Yes Forced : No

File list

  • Golden Boy OVA 1995 480p.x264.Tri-Audio.Ita.Eng.Jap [Rady]
    • Golden Boy 1 480p.x264.Tri-Audio.Ita.Eng.Jap [Rady].mkv (433.6 MiB)
    • Golden Boy 2 480p.x264.Tri-Audio.Ita.Eng.Jap [Rady].mkv (375.8 MiB)
    • Golden Boy 3 480p.x264.Tri-Audio.Ita.Eng.Jap [Rady].mkv (375.4 MiB)
    • Golden Boy 4 480p.x264.Tri-Audio.Ita.Eng.Jap [Rady].mkv (426.7 MiB)
    • Golden Boy 5 480p.x264.Tri-Audio.Ita.Eng.Jap [Rady].mkv (446.9 MiB)
    • Golden Boy 6 480p.x264.Tri-Audio.Ita.Eng.Jap [Rady].mkv (414.1 MiB)
There was never a Blu-Ray of this, right? Either way thank you. One of the few Animus I prefer the Engrish Dub over the Japanese.

radydragoon (uploader)

User
@NodMan yeah they never remaster it, but still is one of the best Old School = Gold