[neoHEVC] Maria†Holic [Season 1+2] [BD 1080p x265 HEVC AC3 AAC] [Dual Audio]

Category:
Date:
2020-11-21 10:03 UTC
Submitter:
Seeders:
18
Information:
Leechers:
2
File size:
7.5 GiB
Completed:
954
Info hash:
feb913444d7d9f8a0531d812ab1e131d4c89d495
![](https://i.imgur.com/RBlGp48.png) *Join **[Discord](https://discord.gg/47Q7FdB54e)** for Current Projects, Encode-Requests and Seed-Request in case of no available seeds.* **Maria†Holic [Season 1+2]** *with `Dual Audio (Jpn/Eng)` and `Eng Subs` in `BD 1080p HEVC`* Reencode of [hchcsen] (x264 AVC AC3 FLAC) to (x265 HEVC AC3 AAC). *Side Note: I created additional [Signs & Songs] subtitle tracks from the [Dialog] subtitle tracks that were included in the source. While doing so, I've noticed slight subtitle frame-delays. I went through each and every episode and every single one of the gazillion signs (awesome subtitles though - many hours of work must have been sinked into these) and timed them whereever needed to get rid of all the sign-framebleeds.* ![](https://i.imgur.com/4iegWLL.png) **[Trailer](https://www.youtube.com/watch?v=69SzJNXrAvI)** ![](https://i.imgur.com/3UxGuWB.png) ![](https://i.imgur.com/ZCtSawZ.png) **[MyAnimeList: Maria†Holic [Season 1]](https://myanimelist.net/anime/5030/Maria%E2%80%A0Holic)** ![](https://i.imgur.com/3UxGuWB.png) ![](https://i.imgur.com/ZCtSawZ.png) **[MyAnimeList: Maria†Holic [Season 2]](https://myanimelist.net/anime/9712/Maria%E2%80%A0Holic_Alive)** --- **Language Options** I included two simple scripts that you can apply to these files to do the following (Windows only): 1. Change [Default Tracks]: Switches default tracks to *A:Japanese S:Dialog* 2. Make [Single Audio]: Throws out *English audio* and *Signs&Songs subtitles* tracks To apply these put all the video files into the *Language Options* folder and run the .bat file. <1> Changes existing files, <2> creates new ones in the *output* folder. --- **Synopsis (Season 1)** In search of true love, Kanako Miyamae transfers to Ame no Kisaki Catholic school, inspired by how her parents fell in love with each other there. There is just one difference, though: because men make Kanako break into hives, she has actually come to the all-girls school to find a partner of the same sex. When she meets the beautiful Mariya Shidou, Kanako believes she has found that special someone; however, there's more to Mariya than meets the eye—it turns out that Kanako's first love is actually a cross-dressing boy. Mariya threatens to expose Kanako's impure intentions unless she keeps his real gender a secret, and to make things worse, he also replaces her original roommate so that he can now keep a close eye on her. Maria†Holic follows Kanako as she looks for love in all the wrong places and searches for the girl of her dreams—that is, if she can survive being Mariya's roommate! ![](https://i.imgur.com/nh4sd9x.png) --- **Comparison** *Open links, toggle with mouseclick and check title.* [![](https://i.imgur.com/GlRJu0F.png)](https://slow.pics/c/bWcKHIvr) [![](https://i.imgur.com/khtOHfK.png)](https://slow.pics/c/GzShbXuO) [![](https://i.imgur.com/wh9mlLB.png)](https://slow.pics/c/gzs6Tpeh) --- **Source** ?️ Video, Audio and Subs: **[[hchcsen]](https://nyaa.si/view/1303263)** ? *Subtitles Info: [Anonymous, maybe Coalgirls] Season 1, [Commie] Season 2 - Format `ASS`* --- **Media Info** ? [Full Mediainfo incl. Encoder Settings](https://pastebin.com/mZp6Gdjj) ``` General Unique ID : 268595193789485229799472074002748627819 (0xCA118D7B5F61912A6B6DC606CCC35B6B) Complete name : Maria+Holic - S01E01.mkv Format : Matroska Format version : Version 4 File size : 310 MiB Duration : 23 min 36 s Overall bit rate : 1 833 kb/s Movie name : Maria+Holic - S01E01 Encoded date : UTC 2020-11-19 19:40:09 Writing application : mkvmerge v47.0.0 ('Black Flag') 64-bit Writing library : libebml v1.3.10 + libmatroska v1.5.2 / Lavf58.29.100 Attachments : GOTHICBI.TTF / GOTHICI.TTF / JAKOB_CTT.TTF / JakobCTT_Bold.Ttf / Lithos Pro Black.otf / LITHOSPRO-REGULAR.OTF / SEVENET.TTF / Shokkked.otf / STYLU.TTF / TAHOMA.TTF / tahomabd.ttf / techb___.ttf / techl___.ttf / TECHNIC_.TTF / trebuc.ttf / trebucbd.ttf / trebucbi.ttf / trebucit.ttf / ALBERTUS.TTF / AMERIKA SANS.TTF / angry.TTF / anja.TTF / ANMARV02.TTF / ARIAL.TTF / BAVEU__X.TTF / BKANT.TTF / BOOKOS.TTF / BOOKOSB.TTF / BOOKOSBI.TTF / BOOKOSI.TTF / BRUSHTYPE BOLD.TTF / carolingia.ttf / DERBY.TTF / GOTHIC.TTF / GOTHICB.TTF Video ID : 1 Format : HEVC Format/Info : High Efficiency Video Coding Format profile : Main 10@L4.1@High Codec ID : V_MPEGH/ISO/HEVC Duration : 23 min 35 s Bit rate : 1 358 kb/s Width : 1 920 pixels Height : 1 080 pixels Display aspect ratio : 16:9 Frame rate mode : Constant Frame rate : 29.970 (30000/1001) FPS Color space : YUV Chroma subsampling : 4:2:0 Bit depth : 10 bits Bits/(Pixel*Frame) : 0.022 Stream size : 229 MiB (74%) Writing library : x265 3.2.1+1-b5c86a64bbbe:[Windows][GCC 9.2.0][64 bit] 10bit Encoding settings : <Check Link Above> Default : Yes Forced : No Color range : Limited Color primaries : BT.709 Transfer characteristics : BT.709 Matrix coefficients : BT.709 Audio #1 ID : 2 Format : AC-3 Format/Info : Audio Coding 3 Commercial name : Dolby Digital Codec ID : A_AC3 Duration : 23 min 36 s Bit rate mode : Constant Bit rate : 224 kb/s Channel(s) : 2 channels Channel layout : L R Sampling rate : 48.0 kHz Frame rate : 31.250 FPS (1536 SPF) Compression mode : Lossy Delay relative to video : 24 ms Stream size : 37.8 MiB (12%) Title : Stereo - ENG (AAC) Language : English Service kind : Complete Main Default : Yes Forced : No Audio #2 ID : 3 Format : AAC LC Format/Info : Advanced Audio Codec Low Complexity Codec ID : A_AAC-2 Duration : 23 min 36 s Bit rate : 218 kb/s Channel(s) : 2 channels Channel layout : L R Sampling rate : 48.0 kHz Frame rate : 46.875 FPS (1024 SPF) Compression mode : Lossy Delay relative to video : -43 ms Stream size : 36.8 MiB (12%) Title : Stereo - JPN (AAC) Language : Japanese Default : No Forced : No Text #1 ID : 4 Format : ASS Codec ID : S_TEXT/ASS Codec ID/Info : Advanced Sub Station Alpha Duration : 23 min 33 s Bit rate : 189 b/s Count of elements : 277 Compression mode : Lossless Stream size : 32.7 KiB (0%) Title : Signs & Songs - ENG (ASS) Language : English Default : Yes Forced : No Text #2 ID : 5 Format : ASS Codec ID : S_TEXT/ASS Codec ID/Info : Advanced Sub Station Alpha Duration : 23 min 34 s Bit rate : 322 b/s Count of elements : 680 Compression mode : Lossless Stream size : 55.7 KiB (0%) Title : Dialog - ENG (ASS) Language : English Default : No Forced : No Menu 00:00:00.000 : :Prologue 00:01:34.027 : :Part 1 00:08:12.092 : :Part 2 00:12:33.686 : :Part 3 00:13:16.996 : :Part 4 00:17:47.266 : :Part 5 00:20:05.104 : :Ending 00:21:35.261 : :Matsurika's Diary 00:23:20.065 : :Preview ```

File list

  • [neoHEVC] Maria+Holic [Season 1+2] [BD 1080p x265 HEVC AC3 AAC] [Dual Audio]
    • Language Options
      • 1. Change [Default Tracks].bat (283 Bytes)
      • 2. Make [Single Audio] Japanese.bat (124 Bytes)
      • mkvmerge.exe (9.6 MiB)
      • mkvpropedit.exe (5.1 MiB)
    • Season 1
      • Maria+Holic - S01E01.mkv (309.5 MiB)
      • Maria+Holic - S01E02.mkv (322.3 MiB)
      • Maria+Holic - S01E03.mkv (375.9 MiB)
      • Maria+Holic - S01E04.mkv (328.5 MiB)
      • Maria+Holic - S01E05.mkv (352.8 MiB)
      • Maria+Holic - S01E06.mkv (295.1 MiB)
      • Maria+Holic - S01E07.mkv (280.0 MiB)
      • Maria+Holic - S01E08.mkv (317.7 MiB)
      • Maria+Holic - S01E09.mkv (338.4 MiB)
      • Maria+Holic - S01E10.mkv (300.7 MiB)
      • Maria+Holic - S01E11.mkv (362.0 MiB)
      • Maria+Holic - S01E12.mkv (321.2 MiB)
    • Season 2
      • Maria+Holic - S02E01.mkv (344.8 MiB)
      • Maria+Holic - S02E02.mkv (368.0 MiB)
      • Maria+Holic - S02E03.mkv (316.4 MiB)
      • Maria+Holic - S02E04.mkv (282.3 MiB)
      • Maria+Holic - S02E05.mkv (290.5 MiB)
      • Maria+Holic - S02E06.mkv (282.4 MiB)
      • Maria+Holic - S02E07.mkv (295.6 MiB)
      • Maria+Holic - S02E08.mkv (288.7 MiB)
      • Maria+Holic - S02E09.mkv (297.8 MiB)
      • Maria+Holic - S02E10.mkv (306.8 MiB)
      • Maria+Holic - S02E11.mkv (312.5 MiB)
      • Maria+Holic - S02E12.mkv (392.1 MiB)
Please include NCOP and NCED in your shares....

neoborn (uploader)

User
**@komene** I am not using or watching these and that's why I'm not even downloading them from my source most of the time. I store all my uploads locally for seeding purposes (one private copy and one seeding copy) so space is going to be a problem in the near future. That's why I only keep and create what I personally use. Hope that makes sense.
For anyone else who might be bothered by the repeated frames in season 1 (encoded at 29.97fps in all releases, common issue for Shaft anime from this period) try these mpv settings: mpv --vf=lavfi=decimate --video-sync=display-resample "Maria+Holic - S01E01.mkv" While having your display set to 24hz. Also, thank you for this release OP!