[NSBC] Neko E02 [HDTV] [720p]

Category:
Date:
2020-11-21 07:16 UTC
Submitter:
Seeders:
11
Information:
TlNCQy50bwo=
Leechers:
5
File size:
366.2 MiB
Completed:
362
Info hash:
a52b0883c13a8a6ad28dd997d3196fdb18af4c03
![](https://img.topddl.net/images/2020/11/14/neko1040.jpg "") ![](https://img.topddl.net/images/2020/11/21/Neko-S01E02-720p-HDTV-AAC-x264-NSBC.mkv.jpg "") ``` General Unique ID : 118415685555418121619453572149973123345 (0x5916080E64D179170ED772D2B1948111) Complete name : Neko S01E02 720p HDTV AAC x264-NSBC.mkv Format : Matroska Format version : Version 4 File size : 366 MiB Duration : 24 min 14 s Overall bit rate : 2 112 kb/s Movie name : Neko S01E02 720p HDTV AAC x264-NSBC Encoded date : UTC 2020-11-21 06:14:05 Writing application : mkvmerge v29.0.0 ('Like It Or Not') 64-bit Writing library : libebml v1.3.6 + libmatroska v1.4.9 Video ID : 1 Format : AVC Format/Info : Advanced Video Codec Format profile : High@L4.1 Format settings : CABAC / 9 Ref Frames Format settings, CABAC : Yes Format settings, Reference frames : 9 frames Codec ID : V_MPEG4/ISO/AVC Duration : 24 min 14 s Bit rate : 1 888 kb/s Width : 1 280 pixels Height : 720 pixels Display aspect ratio : 16:9 Frame rate mode : Constant Frame rate : 29.970 (30000/1001) FPS Color space : YUV Chroma subsampling : 4:2:0 Bit depth : 8 bits Scan type : Progressive Bits/(Pixel*Frame) : 0.068 Stream size : 327 MiB (89%) Title : [NSBC] Writing library : x264 core 161 r3015 4c2aafd Encoding settings : cabac=1 / ref=9 / deblock=1:-3:-3 / analyse=0x3:0x113 / me=umh / subme=9 / psy=1 / psy_rd=1.00:0.00 / mixed_ref=0 / me_range=16 / chroma_me=1 / trellis=2 / 8x8dct=1 / cqm=0 / deadzone=21,11 / fast_pskip=1 / chroma_qp_offset=-2 / threads=12 / lookahead_threads=1 / sliced_threads=0 / nr=0 / decimate=1 / interlaced=0 / bluray_compat=0 / constrained_intra=0 / bframes=9 / b_pyramid=2 / b_adapt=1 / b_bias=0 / direct=1 / weightb=1 / open_gop=0 / weightp=1 / keyint=250 / keyint_min=25 / scenecut=40 / intra_refresh=0 / rc_lookahead=20 / rc=crf / mbtree=1 / crf=18.0 / qcomp=0.60 / qpmin=0 / qpmax=69 / qpstep=4 / vbv_maxrate=30000 / vbv_bufsize=25000 / crf_max=0.0 / nal_hrd=none / filler=0 / ip_ratio=1.40 / aq=1:1.00 Default : Yes Forced : No Color range : Limited Color primaries : BT.709 Transfer characteristics : BT.709 Matrix coefficients : BT.709 Audio ID : 2 Format : AAC LC Format/Info : Advanced Audio Codec Low Complexity Codec ID : A_AAC-2 Duration : 24 min 13 s Bit rate : 221 kb/s Channel(s) : 2 channels Channel layout : L R Sampling rate : 48.0 kHz Frame rate : 46.875 FPS (1024 SPF) Compression mode : Lossy Delay relative to video : 16 ms Stream size : 38.4 MiB (10%) Title : [NSBC] Language : Japanese Default : Yes Forced : No ```

File list

  • Neko S01E02 720p HDTV AAC x264-NSBC.mkv (366.2 MiB)