[NSBC] Lupin no Musume Season 2 E06 [WEBDL] [1080p]

Category:
Date:
2020-11-20 11:29 UTC
Submitter:
Seeders:
2
Information:
TlNCQy50bwo=
Leechers:
0
File size:
949.8 MiB
Completed:
736
Info hash:
14a97a1d4f08020c2dfb873ae6b1c66446301a9d
> ## In case there is no seeder, visit [here](https://justpaste.it/nsbc) > ## From VIU Singapore > ## Softsubs at [Subscene](https://subscene.com/subtitles/daughter-of-lupin-2-lupin-no-musume-2-2) ![](https://img.topddl.net/images/2020/10/16/lnm.jpg "") ![](https://img.topddl.net/images/2020/11/20/Lupin-no-Musume-S02E06-1080p-WEB-DL-AAC-H.264-NSBC.mkv.jpg "") ``` General Unique ID : 130709275471115682497391876750008527046 (0x6255B0D5E71FE7BFB4015801EA6228C6) Complete name : Lupin no Musume S02E06 1080p WEB-DL AAC H.264-NSBC .mkv Format : Matroska Format version : Version 4 File size : 950 MiB Duration : 45 min 30 s Overall bit rate mode : Variable Overall bit rate : 2 918 kb/s Movie name : Lupin no Musume S02E06 1080p WEB-DL AAC H.264-NSBC Encoded by : NoNe | NSBC Encoded date : UTC 2020-11-20 11:21:49 Writing application : mkvmerge v29.0.0 ('Like It Or Not') 64-bit Writing library : libebml v1.3.6 + libmatroska v1.4.9 Copyright : NSBC Comment : NoNe | NSBC DATE_RECORDED : 2020 NOTICE ME : SENPAI WEBSITE : NSBC.to Video ID : 1 Format : AVC Format/Info : Advanced Video Codec Format profile : High@L4.1 Format settings : CABAC / 4 Ref Frames Format settings, CABAC : Yes Format settings, Reference frames : 4 frames Codec ID : V_MPEG4/ISO/AVC Duration : 45 min 30 s Bit rate mode : Variable Bit rate : 2 819 kb/s Maximum bit rate : 4 500 kb/s Width : 1 920 pixels Height : 1 080 pixels Display aspect ratio : 16:9 Frame rate mode : Constant Frame rate : 29.970 (30000/1001) FPS Original frame rate : 29.970 (29970/1000) FPS Color space : YUV Chroma subsampling : 4:2:0 Bit depth : 8 bits Scan type : Progressive Bits/(Pixel*Frame) : 0.045 Stream size : 918 MiB (97%) Title : [NSBC] Writing library : VOLO1.4.1 Default : Yes Forced : No Audio ID : 2 Format : AAC LC Format/Info : Advanced Audio Codec Low Complexity Codec ID : A_AAC-2 Duration : 45 min 30 s Bit rate : 96.0 kb/s Channel(s) : 2 channels Channel layout : L R Sampling rate : 48.0 kHz Frame rate : 46.875 FPS (1024 SPF) Compression mode : Lossy Delay relative to video : -42 ms Stream size : 31.3 MiB (3%) Title : [NSBC] Language : Japanese Default : Yes Forced : No Text ID : 3 Format : UTF-8 Codec ID : S_TEXT/UTF8 Codec ID/Info : UTF-8 Plain Text Duration : 45 min 25 s Bit rate : 71 b/s Count of elements : 987 Stream size : 23.8 KiB (0%) Title : [NSBC] Language : English Default : Yes Forced : No ```

File list

  • Lupin no Musume S02E06 1080p WEB-DL AAC H.264-NSBC .mkv (949.8 MiB)