[Maximus] The God of High School [CR-Dub 1080p x265 AAC]

Category:
Date:
2020-11-17 03:38 UTC
Submitter:
Anonymous
Seeders:
3
Information:
No information.
Leechers:
0
File size:
6.5 GiB
Completed:
142
Info hash:
032c65e294ba072aa0e48dc544c18d95e99b7507
[![The-God-of-High-School-13-CR-Dub-1080p-x265-AAC-mkv-snapshot-11-33-2020-11-16-21-34-07.png](https://i.postimg.cc/nLxxGdXP/The-God-of-High-School-13-CR-Dub-1080p-x265-AAC-mkv-snapshot-11-33-2020-11-16-21-34-07.png)](https://postimg.cc/fV81wfjc) General Format : Matroska Format version : Version 4 File size : 551 MiB Duration : 23 min 53 s Overall bit rate : 3 227 kb/s Encoded date : UTC 2020-11-17 03:08:57 Writing application : mkvmerge v47.0.0 ('Black Flag') 64-bit Writing library : libebml v1.3.10 + libmatroska v1.5.2 Video ID : 1 Format : HEVC Format/Info : High Efficiency Video Coding Format profile : Main 10@L5@Main Codec ID : V_MPEGH/ISO/HEVC Duration : 23 min 53 s Bit rate : 3 097 kb/s Width : 1 920 pixels Height : 1 080 pixels Display aspect ratio : 16:9 Frame rate mode : Constant Frame rate : 23.976 (24000/1001) FPS Color space : YUV Chroma subsampling : 4:2:0 Bit depth : 10 bits Bits/(Pixel*Frame) : 0.062 Stream size : 529 MiB (96%) Writing library : x265 3.4+26-ga82c6c7a7:[Windows][MSVC 1927][64 bit] 10bit Encoding settings : cpuid=1111039 / frame-threads=4 / numa-pools=24 / wpp / no-pmode / no-pme / no-psnr / no-ssim / log-level=2 / input-csp=1 / input-res=1920x1080 / interlace=0 / total-frames=34359 / level-idc=0 / high-tier=1 / uhd-bd=0 / ref=6 / no-allow-non-conformance / no-repeat-headers / annexb / no-aud / no-hrd / info / hash=0 / no-temporal-layers / open-gop / min-keyint=23 / keyint=250 / gop-lookahead=0 / bframes=8 / b-adapt=2 / b-pyramid / bframe-bias=0 / rc-lookahead=25 / lookahead-slices=4 / scenecut=40 / hist-scenecut=0 / radl=0 / no-splice / no-intra-refresh / ctu=64 / min-cu-size=8 / rect / no-amp / max-tu-size=32 / tu-inter-depth=1 / tu-intra-depth=1 / limit-tu=0 / rdoq-level=2 / dynamic-rd=0.00 / no-ssim-rd / signhide / no-tskip / nr-intra=0 / nr-inter=0 / constrained-intra / strong-intra-smoothing / max-merge=3 / limit-refs=3 / limit-modes / me=3 / subme=3 / merange=57 / temporal-mvp / no-frame-dup / no-hme / weightp / no-weightb / no-analyze-src-pics / deblock=0:0 / sao / no-sao-non-deblock / rd=4 / selective-sao=4 / no-early-skip / rskip / no-fast-intra / no-tskip-fast / no-cu-lossless / no-b-intra / no-splitrd-skip / rdpenalty=0 / psy-rd=1.00 / psy-rdoq=1.00 / no-rd-refine / no-lossless / cbqpoffs=0 / crqpoffs=0 / rc=crf / crf=19.0 / qcomp=0.60 / qpstep=4 / stats-write=0 / stats-read=0 / ipratio=1.40 / pbratio=1.30 / aq-mode=3 / aq-strength=1.00 / cutree / zone-count=0 / no-strict-cbr / qg-size=32 / no-rc-grain / qpmax=69 / qpmin=0 / no-const-vbv / sar=0 / overscan=0 / videoformat=5 / range=0 / colorprim=2 / transfer=2 / colormatrix=2 / chromaloc=0 / display-window=0 / cll=0,0 / min-luma=0 / max-luma=1023 / log2-max-poc-lsb=8 / vui-timing-info / vui-hrd-info / slices=1 / no-opt-qp-pps / no-opt-ref-list-length-pps / no-multi-pass-opt-rps / scenecut-bias=0.05 / hist-threshold=0.03 / no-opt-cu-delta-qp / no-aq-motion / no-hdr10 / no-hdr10-opt / no-dhdr10-opt / no-idr-recovery-sei / analysis-reuse-level=0 / analysis-save-reuse-level=0 / analysis-load-reuse-level=0 / scale-factor=0 / refine-intra=0 / refine-inter=0 / refine-mv=1 / refine-ctu-distortion=0 / limit-sao / ctu-info=0 / no-lowpass-dct / refine-analysis-type=0 / copy-pic=1 / max-ausize-factor=1.0 / no-dynamic-refine / no-single-sei / no-hevc-aq / no-svt / no-field / qp-adaptation-range=1.00 / no-scenecut-aware-qpconformance-window-offsets / right=0 / bottom=0 / decoder-max-rate=0 / no-vbv-live-multi-pass Default : Yes Forced : No Audio ID : 2 Format : AAC LC Format/Info : Advanced Audio Codec Low Complexity Codec ID : A_AAC-2 Duration : 23 min 53 s Bit rate : 129 kb/s Channel(s) : 2 channels Channel layout : L R Sampling rate : 44.1 kHz Frame rate : 43.066 FPS (1024 SPF) Compression mode : Lossy Stream size : 22.0 MiB (4%) Language : English Default : Yes Forced : No Text ID : 3 Format : ASS Codec ID : S_TEXT/ASS Codec ID/Info : Advanced Sub Station Alpha Duration : 9 min 35 s Bit rate : 2 b/s Count of elements : 2 Compression mode : Lossless Stream size : 160 Bytes (0%) Title : English (US) / English (US) Language : English Default : No Forced : No

File list

  • The God of High School
    • The God of High School - 01 [CR-Dub 1080p x265 AAC].mkv (589.9 MiB)
    • The God of High School - 02 [CR-Dub 1080p x265 AAC].mkv (534.6 MiB)
    • The God of High School - 03 [CR-Dub 1080p x265 AAC].mkv (425.0 MiB)
    • The God of High School - 04 [CR-Dub 1080p x265 AAC].mkv (488.5 MiB)
    • The God of High School - 05 [CR-Dub 1080p x265 AAC].mkv (498.7 MiB)
    • The God of High School - 06 [CR-Dub 1080p x265 AAC].mkv (505.5 MiB)
    • The God of High School - 07 [CR-Dub 1080p x265 AAC].mkv (489.4 MiB)
    • The God of High School - 08 [CR-Dub 1080p x265 AAC].mkv (440.7 MiB)
    • The God of High School - 09 [CR-Dub 1080p x265 AAC].mkv (525.3 MiB)
    • The God of High School - 10 [CR-Dub 1080p x265 AAC].mkv (495.2 MiB)
    • The God of High School - 11 [CR-Dub 1080p x265 AAC].mkv (489.4 MiB)
    • The God of High School - 12 [CR-Dub 1080p x265 AAC].mkv (575.2 MiB)
    • The God of High School - 13 [CR-Dub 1080p x265 AAC].mkv (551.4 MiB)