[neoHEVC] That Time I Got Reincarnated as a Slime [OAD 1-4 + Summary] [1080p x265 HEVC AAC] [Dual Audio] Tensei shitara Slime Datta Ken

Category:
Date:
2020-11-14 13:42 UTC
Submitter:
Seeders:
4
Information:
Leechers:
0
File size:
1.9 GiB
Completed:
867
Info hash:
07892b62a910f8f2fd7d606bc5877e8abf5cbf79
![](https://i.imgur.com/clpISvn.png) *Join **[Discord](https://discord.gg/KYKYZUh)** for Current Projects, Encode-Requests and Seed-Request in case of no available seeds.* **That Time I Got Reincarnated as a Slime [OAD 1-4 + Summary]** *with `Dual Audio (Jpn/Eng)` and `Eng Subs` in `WEB 1080p HEVC`* Reencode of [VCB-Studio] (x264 AVC FLAC) to (x265 HEVC AAC) with added English audio tracks from [Golumpa] and [KS] and English subtitles from [LostYear, HS, CR]. *Side Note: I created additional [Signs & Songs] subtitle tracks from the [Dialog] subtitle tracks to go with the added English audio tracks and inserted OP/ED songs translation where missing.* ![](https://i.imgur.com/ZCtSawZ.png) **[MyAnimeList: Tales - Veldora's Journal](https://myanimelist.net/anime/39607/Tensei_shitara_Slime_Datta_Ken__Kanwa_-_Veldora_Nikki)** ![](https://i.imgur.com/3UxGuWB.png) ![](https://i.imgur.com/ZCtSawZ.png) **[MyAnimeList:OAD](https://myanimelist.net/anime/38793/Tensei_shitara_Slime_Datta_Ken_OVA)** --- **Related Releases:** 2️⃣ [Season 2 + Season 1 Recap E24.9: Digression: Hinata Sakaguchi](https://nyaa.si/view/1401568) --- **Language Options** I included two simple scripts that you can apply to these files to do the following (Windows only): 1. Change [Default Tracks]: Switches default tracks to *A:Japanese S:Dialog* 2. Make [Single Audio]: Throws out *English audio* and *Signs&Songs subtitles* tracks To apply these put all the video files into the *Language Options* folder and run the .bat file. <1> Changes existing files, <2> creates new ones in the *output* folder. --- **Synopsis (OAD)** Rimuru has been teaching Shizue's students at Ingracia Kingdom's Freedom Academy. The time has come for the school's annual outdoor training event, where the students will test their combat skills in the field. Rimuru is determined to win the competition and take home the prize money, but he is challenged by Jeff, an honorary teacher who sees Rimuru as a rival. The competition is underway when suddenly an unexpected enemy appears! ![](https://i.imgur.com/C8IYtBH.png) --- **Comparison** *Open links, toggle with mouseclick and check title.* [![](https://i.imgur.com/wZOMnNe.png)](https://slow.pics/c/XIwkrArx) [![](https://i.imgur.com/deTg2lV.png)](https://slow.pics/c/Y02C9yTz) [![](https://i.imgur.com/l8Y7uir.png)](https://slow.pics/c/V8az08W3) --- **Source** ?️ Video and Jpn Audio: **[[VCB-Studio]](https://nyaa.si/view/1265549)** ?️ Eng Audio: **[[Golumpa 1]](https://nyaa.si/view/1136102) [[Golumpa 2]](https://nyaa.si/view/1302029) [[Golumpa 3]](https://nyaa.si/view/1302038) [[KS 1]](https://nyaa.si/view/1214436)** ?️ Subs: **[[KS 1]](https://nyaa.si/view/1214436) [[KS 2]](https://nyaa.si/view/1232540) [[KS 3]](https://nyaa.si/view/1260999) [[-__-']](https://nyaa.si/view/1289343)** ? *Subtitles Info: [LostYear, HS, CR] - Format `ASS`* --- **Media Info** ? [Full Mediainfo incl. Encoder Settings](https://pastebin.com/g1rpK9uR) ``` General Unique ID : 181935836714709209588340925805285243133 (0x88DF914D7C8CC940B24CDA32DE1A78FD) Complete name : That Time I Got Reincarnated as a Slime - S00E01 - (S1S1 Tales - Veldora's Journal).mkv Format : Matroska Format version : Version 4 File size : 503 MiB Duration : 23 min 46 s Overall bit rate : 2 961 kb/s Movie name : That Time I Got Reincarnated as a Slime - S00E01 - (S1S1 Tales - Veldora's Journal) Encoded date : UTC 2020-11-14 12:35:34 Writing application : mkvmerge v47.0.0 ('Black Flag') 64-bit Writing library : libebml v1.3.10 + libmatroska v1.5.2 / Lavf58.29.100 Video ID : 1 Format : HEVC Format/Info : High Efficiency Video Coding Format profile : Main 10@L4.1@High Codec ID : V_MPEGH/ISO/HEVC Duration : 23 min 46 s Bit rate : 2 506 kb/s Width : 1 920 pixels Height : 1 080 pixels Display aspect ratio : 16:9 Frame rate mode : Constant Frame rate : 23.976 (24000/1001) FPS Color space : YUV Chroma subsampling : 4:2:0 Bit depth : 10 bits Bits/(Pixel*Frame) : 0.050 Stream size : 426 MiB (85%) Writing library : x265 3.2.1+1-b5c86a64bbbe:[Windows][GCC 9.2.0][64 bit] 10bit Encoding settings : <Check Link Above> Default : Yes Forced : No Color range : Limited Color primaries : BT.709 Transfer characteristics : BT.709 Matrix coefficients : BT.709 Audio #1 ID : 2 Format : AAC LC Format/Info : Advanced Audio Codec Low Complexity Codec ID : A_AAC-2 Duration : 23 min 45 s Bit rate : 253 kb/s Channel(s) : 2 channels Channel layout : L R Sampling rate : 48.0 kHz Frame rate : 46.875 FPS (1024 SPF) Compression mode : Lossy Delay relative to video : -43 ms Stream size : 43.0 MiB (9%) Title : Stereo - ENG (AAC) Language : English Default : Yes Forced : No Audio #2 ID : 3 Format : AAC LC Format/Info : Advanced Audio Codec Low Complexity Codec ID : A_AAC-2 Duration : 23 min 46 s Bit rate : 199 kb/s Channel(s) : 2 channels Channel layout : L R Sampling rate : 48.0 kHz Frame rate : 46.875 FPS (1024 SPF) Compression mode : Lossy Delay relative to video : -43 ms Stream size : 33.8 MiB (7%) Title : Stereo - JPN (AAC) Language : Japanese Default : No Forced : No Text #1 ID : 4 Format : ASS Codec ID : S_TEXT/ASS Codec ID/Info : Advanced Sub Station Alpha Duration : 17 min 57 s Bit rate : 23 b/s Count of elements : 30 Compression mode : Lossless Stream size : 3.08 KiB (0%) Title : Signs - ENG (ASS) Language : English Default : Yes Forced : No Text #2 ID : 5 Format : ASS Codec ID : S_TEXT/ASS Codec ID/Info : Advanced Sub Station Alpha Duration : 22 min 6 s Bit rate : 180 b/s Count of elements : 426 Compression mode : Lossless Stream size : 29.2 KiB (0%) Title : Dialog - ENG (ASS) Language : English Default : No Forced : No Menu 00:00:00.000 : :アバン 00:03:05.977 : :OP 00:04:36.151 : :Aパート 00:13:26.097 : :Bパート 00:22:15.084 : :ED ```

File list

  • [neoHEVC] That Time I Got Reincarnated as a Slime [OAD 1-4 + Summary] [1080p x265 HEVC AAC] [Dual Audio]
    • Language Options
      • 1. Change [Default Tracks].bat (283 Bytes)
      • 2. Make [Single Audio] Japanese.bat (124 Bytes)
      • mkvmerge.exe (9.6 MiB)
      • mkvpropedit.exe (5.1 MiB)
    • That Time I Got Reincarnated as a Slime - S00E01 - (S1S1 Tales - Veldora's Journal).mkv (503.4 MiB)
    • That Time I Got Reincarnated as a Slime - S00E02 - (S1O1 The Tragedy of M).mkv (402.2 MiB)
    • That Time I Got Reincarnated as a Slime - S00E03 - (S1O2 Hey Butts!).mkv (350.3 MiB)
    • That Time I Got Reincarnated as a Slime - S00E04 - (S1O3 Rimuru's Glamorous Life as a Teacher 1).mkv (351.9 MiB)
    • That Time I Got Reincarnated as a Slime - S00E05 - (S1O4 Rimuru's Glamorous Life as a Teacher 2).mkv (323.6 MiB)

Tho

User
Thanks for this, had all but the Journal but good to have all in one now that we are getting the 3rd Teacher episode in 2 weeks!

neoborn (uploader)

User
**@Tho** I thought about just waiting for the last one but when I checked what the delay was between airing and dub release I just put this up now. I will put together the last OAD as soon as the dub is available.
OAD1 = "Hey Butts!" and OAD2 = "The Tragedy of M".

neoborn (uploader)

User
I went with the ordering of myanimelist and thetvdb and also with the release date that was given on those 2 sites. Both had M before Hey so I just numbered them like that.
Rimuru is best girl in Ten-sura ....Girl?
Could you please upload Rimuru's Glamorous Life as a Teacher part 3 in Dual Audio? I think its already out there...
Hi can you have a release on Tensei shitara slime Season 1 BD i like your release . ?