[naiyas] Taimadou Gakuen 35 Shiken Shoutai [BD1080P HEVC10 QAAC]

Category:
Date:
2020-11-08 07:03 UTC
Submitter:
Seeders:
4
Information:
Leechers:
0
File size:
9.3 GiB
Completed:
137
Info hash:
bbf51d993ac1affa7fefc4783c23b8de269717ec
![alt text](https://i.slow.pics/YCNctPG8.png) ***Video & Audio source:*** [**_[VCB-Studio]_**](https://nyaa.si/view/876156) ***Subs source: [Cthuyuu-SallySubs]*** --- ***Audio encoded in qaac vbr q 127*** --- ***For more info: visit*** [***myanimelist.net***](https://myanimelist.net/anime/24133/Taimadou_Gakuen_35_Shiken_Shoutai) #### **Screenshots:** ![alt text](https://i.slow.pics/MTWJd92w.png) ![alt text](https://i.slow.pics/XOKivHpc.png) ![alt text](https://i.slow.pics/NEkp4BSq.png) ![alt text](https://i.slow.pics/0OHm7K8Q.png) ![alt text](https://i.slow.pics/4PwCMirj.png) --- **Media info:** ``` General Unique ID : 3694987662370125760478690646339241312 (0x2C7A0F4FE6F334F8E2DA2F5535A4560) Complete name : [naiyas] Taimadou Gakuen 35 Shiken Shoutai - S01E12 - [BD1080P HEVC10 QAAC].mkv Format : Matroska Format version : Version 4 File size : 899 MiB Duration : 23 min 36 s Overall bit rate : 5 321 kb/s Movie name : [naiyas] Taimadou Gakuen 35 Shiken Shoutai - S01E12 - [BD1080P HEVC10 QAAC] Encoded date : UTC 2020-11-08 06:09:07 Writing application : mkvmerge v51.0.0 ('I Wish') 64-bit Writing library : libebml v1.4.0 + libmatroska v1.6.2 Attachments : OldStyle 1.TTF / One Trick Pony.ttf / Open Sans Semibold.ttf / Oswald.ttf / Puritan.TTF / Romic Std Medium.otf / Allerta.ttf / Arrus BT.TTF / Belligerent Madness.ttf / Boulder.TTF / CantoraOne-Regular.ttf / DFPSHT-W5-Madoka.ttf / Droid Sans.ttf / Handlee.ttf / KozGoProH-Madoka.ttf / Kozuka Mincho Pro Strp H.otf / Lato.ttf / Lato-Regular.ttf / Linux Libertine.ttf Video ID : 1 Format : HEVC Format/Info : High Efficiency Video Coding Format profile : Main 10@L4@High Codec ID : V_MPEGH/ISO/HEVC Duration : 23 min 36 s Bit rate : 4 986 kb/s Width : 1 920 pixels Height : 1 080 pixels Display aspect ratio : 16:9 Frame rate mode : Constant Frame rate : 23.976 (24000/1001) FPS Color space : YUV Chroma subsampling : 4:2:0 Bit depth : 10 bits Bits/(Pixel*Frame) : 0.100 Stream size : 842 MiB (94%) Writing library : x265 2.0+1-6a9b6a828f79:[Windows][MSVC 1900][64 bit] 10bit Encoding settings : wpp / ctu=32 / min-cu-size=8 / max-tu-size=32 / tu-intra-depth=2 / tu-inter-depth=2 / me=3 / subme=3 / merange=44 / no-rect / no-amp / max-merge=3 / temporal-mvp / no-early-skip / rskip / rdpenalty=0 / no-tskip / no-tskip-fast / no-strong-intra-smoothing / no-lossless / no-cu-lossless / no-constrained-intra / no-fast-intra / no-open-gop / no-temporal-layers / interlace=0 / keyint=360 / min-keyint=1 / scenecut=40 / rc-lookahead=60 / lookahead-slices=4 / bframes=6 / bframe-bias=0 / b-adapt=2 / ref=4 / limit-refs=2 / limit-modes / weightp / weightb / aq-mode=1 / qg-size=32 / aq-strength=0.90 / cbqpoffs=-2 / crqpoffs=-2 / rd=5 / psy-rd=2.00 / rdoq-level=2 / psy-rdoq=3.00 / no-rd-refine / signhide / deblock=0:0 / no-sao / no-sao-non-deblock / b-pyramid / cutree / no-intra-refresh / rc=crf / crf=15.5 / qcomp=0.65 / qpmin=0 / qpmax=51 / qpstep=4 / vbv-maxrate=25000 / vbv-bufsize=28000 / crf-max=0.0 / ipratio=1.40 / pbratio=1.20 Language : Japanese Default : Yes Forced : No Audio ID : 2 Format : AAC LC Format/Info : Advanced Audio Codec Low Complexity Codec ID : A_AAC-2 Duration : 23 min 36 s Bit rate : 314 kb/s Channel(s) : 2 channels Channel layout : L R Sampling rate : 48.0 kHz Frame rate : 46.875 FPS (1024 SPF) Compression mode : Lossy Delay relative to video : 20 ms Stream size : 53.1 MiB (6%) Title : qaac vbr q 127 2.0 chn [naiyas] Language : Japanese Default : Yes Forced : No Text ID : 3 Format : ASS Codec ID : S_TEXT/ASS Codec ID/Info : Advanced Sub Station Alpha Duration : 23 min 31 s Bit rate : 1 722 b/s Count of elements : 2679 Compression mode : Lossless Stream size : 297 KiB (0%) Title : [Cthuyuu-SallySubs] Language : English Default : Yes Forced : No Menu 00:00:00.000 : en:Chapter 01 00:02:10.004 : en:Chapter 02 00:03:40.011 : en:Chapter 03 00:12:53.939 : en:Chapter 04 00:22:12.456 : en:Chapter 05

File list

  • [naiyas] Taimadou Gakuen 35 Shiken Shoutai [BD1080P HEVC10 QAAC]
    • CDs
    • [naiyas] Taimadou Gakuen 35 Shiken Shoutai - S01E01 - [BD1080P HEVC10 QAAC].mkv (610.8 MiB)
    • [naiyas] Taimadou Gakuen 35 Shiken Shoutai - S01E02 - [BD1080P HEVC10 QAAC].mkv (876.9 MiB)
    • [naiyas] Taimadou Gakuen 35 Shiken Shoutai - S01E03 - [BD1080P HEVC10 QAAC].mkv (664.4 MiB)
    • [naiyas] Taimadou Gakuen 35 Shiken Shoutai - S01E04 - [BD1080P HEVC10 QAAC].mkv (867.0 MiB)
    • [naiyas] Taimadou Gakuen 35 Shiken Shoutai - S01E05 - [BD1080P HEVC10 QAAC].mkv (623.0 MiB)
    • [naiyas] Taimadou Gakuen 35 Shiken Shoutai - S01E06 - [BD1080P HEVC10 QAAC].mkv (805.4 MiB)
    • [naiyas] Taimadou Gakuen 35 Shiken Shoutai - S01E07 - [BD1080P HEVC10 QAAC].mkv (685.8 MiB)
    • [naiyas] Taimadou Gakuen 35 Shiken Shoutai - S01E08 - [BD1080P HEVC10 QAAC].mkv (848.2 MiB)
    • [naiyas] Taimadou Gakuen 35 Shiken Shoutai - S01E09 - [BD1080P HEVC10 QAAC].mkv (719.9 MiB)
    • [naiyas] Taimadou Gakuen 35 Shiken Shoutai - S01E10 - [BD1080P HEVC10 QAAC].mkv (721.7 MiB)
    • [naiyas] Taimadou Gakuen 35 Shiken Shoutai - S01E11 - [BD1080P HEVC10 QAAC].mkv (793.1 MiB)
    • [naiyas] Taimadou Gakuen 35 Shiken Shoutai - S01E12 - [BD1080P HEVC10 QAAC].mkv (898.8 MiB)
    • [naiyas] Taimadou Gakuen 35 Shiken Shoutai [NCED][BD1080P HEVC10 ALAC].mkv (74.8 MiB)