[neoHEVC] Is It Wrong to Try to Pick Up Girls in a Dungeon II OVA [BD 1080p x265 HEVC AAC] [Dual Audio] Dungeon ni Deai wo Motomeru no wa Machigatteiru Darou ka II OVA

Category:
Date:
2020-11-06 18:06 UTC
Submitter:
Seeders:
3
Information:
Leechers:
0
File size:
316.1 MiB
Completed:
437
Info hash:
38d781aa830ae6a7139c49e553f133a3688cf4c2
![](https://i.imgur.com/clpISvn.png) *Join **[Discord](https://discord.gg/KYKYZUh)** for Current Projects, Encode-Requests and Seed-Request in case of no available seeds.* **Is It Wrong to Try to Pick Up Girls in a Dungeon? II OVA / Dungeon ni Deai wo Motomeru no wa Machigatteiru Darou ka II OVA** *with `Dual Audio (Jpn/Eng)` and `Eng Subs` in `BD 1080p HEVC`* Reencode of [omnipotent500] (x264 AVC FLAC) to (x265 HEVC AAC) with added English audio track from [Golumpa]. *Side Note: I created an additional [Signs & Songs] subtitle track from the [Dialog] subtitle track to go with the added English audio track.* ![](https://i.imgur.com/ZCtSawZ.png) **[MyAnimeList](https://myanimelist.net/anime/40453/Dungeon_ni_Deai_wo_Motomeru_no_wa_Machigatteiru_Darou_ka_II_OVA)** --- **Language Options** I included two simple scripts that you can apply to these files to do the following (Windows only): 1. Change [Default Tracks]: Switches default tracks to *A:Japanese S:Dialog* 2. Make [Single Audio]: Throws out *English audio* and *Signs&Songs subtitles* tracks To apply these put all the video files into the *Language Options* folder and run the .bat file. <1> Changes existing files, <2> creates new ones in the *output* folder. --- **Synopsis** Hestia, Lili and Haruhime waste no time trying to win Bell over with their charms at the beach and run into unexpected competition once Ais crashes the party. However, the usually stoic sword maiden is surprisingly carefree... ![](https://i.imgur.com/gsjODGa.png) --- **Comparison** *Open links, toggle with mouseclick and check title.* [![](https://i.imgur.com/qo1MiM6.png)](https://slow.pics/c/rdRIeHJg) [![](https://i.imgur.com/GfqAWRH.png)](https://slow.pics/c/nyOCx0xl) [![](https://i.imgur.com/r5EyiaN.png)](https://slow.pics/c/S7mhClKc) --- **Source** ?️ Video, Audio and Subs: **[[omnipotent500]](https://nyaa.si/view/1220404)** ?️ Audio: **[[Golumpa]](https://nyaa.si/view/1297905)** ? *Subtitles Info: [Astral] - Format `ASS`* --- **Media Info** ? [Full Mediainfo incl. Encoder Settings](https://pastebin.com/DLb5M648) ``` General Unique ID : 78091238668018555919325205090195715243 (0x3ABFD3539B944522B983020E371FB4AB) Complete name : Is It Wrong to Try to Pick Up Girls in a Dungeon - S00E03 - (S2 OVA).mkv Format : Matroska Format version : Version 4 File size : 301 MiB Duration : 26 min 46 s Overall bit rate : 1 574 kb/s Encoded date : UTC 2020-11-06 16:45:16 Writing application : mkvmerge v47.0.0 ('Black Flag') 64-bit Writing library : libebml v1.3.10 + libmatroska v1.5.2 / Lavf58.29.100 Video ID : 1 Format : HEVC Format/Info : High Efficiency Video Coding Format profile : Main 10@L4.1@High Codec ID : V_MPEGH/ISO/HEVC Duration : 26 min 45 s Bit rate : 1 196 kb/s Width : 1 920 pixels Height : 1 080 pixels Display aspect ratio : 16:9 Frame rate mode : Constant Frame rate : 23.976 (24000/1001) FPS Color space : YUV Chroma subsampling : 4:2:0 Bit depth : 10 bits Bits/(Pixel*Frame) : 0.024 Stream size : 229 MiB (76%) Writing library : x265 3.2.1+1-b5c86a64bbbe:[Windows][GCC 9.2.0][64 bit] 10bit Encoding settings : <Check Link Above> Default : Yes Forced : No Color range : Limited Color primaries : BT.709 Transfer characteristics : BT.709 Matrix coefficients : BT.709 Audio #1 ID : 2 Format : AAC LC Format/Info : Advanced Audio Codec Low Complexity Codec ID : A_AAC-2 Duration : 26 min 46 s Bit rate : 157 kb/s Channel(s) : 2 channels Channel layout : L R Sampling rate : 48.0 kHz Frame rate : 46.875 FPS (1024 SPF) Compression mode : Lossy Delay relative to video : -43 ms Stream size : 30.1 MiB (10%) Title : Stereo - ENG (AAC) Language : English Default : Yes Forced : No Audio #2 ID : 3 Format : AAC LC Format/Info : Advanced Audio Codec Low Complexity Codec ID : A_AAC-2 Duration : 26 min 45 s Bit rate : 210 kb/s Channel(s) : 2 channels Channel layout : L R Sampling rate : 48.0 kHz Frame rate : 46.875 FPS (1024 SPF) Compression mode : Lossy Delay relative to video : -43 ms Stream size : 40.2 MiB (13%) Title : Stereo - JPN (AAC) Language : Japanese Default : No Forced : No Text #1 ID : 4 Format : ASS Codec ID : S_TEXT/ASS Codec ID/Info : Advanced Sub Station Alpha Duration : 12 min 29 s Bit rate : 5 593 b/s Count of elements : 3970 Compression mode : Lossless Stream size : 512 KiB (0%) Title : Signs & Songs - ENG (ASS) Language : English Default : Yes Forced : No Text #2 ID : 5 Format : ASS Codec ID : S_TEXT/ASS Codec ID/Info : Advanced Sub Station Alpha Duration : 24 min 55 s Bit rate : 2 936 b/s Count of elements : 4401 Compression mode : Lossless Stream size : 536 KiB (0%) Title : Dialog - ENG (ASS) Language : English Default : No Forced : No Menu 00:00:00.000 : :01 00:01:33.010 : :02 00:03:02.974 : :03 00:13:10.957 : :04 00:25:07.423 : :05 ```

File list

sff

User
ahh yes b..bs ^_^
No! It is not wrong to pick up a girl in a dungeon. Its anime and anything is allowed!!!