[naiyas] Goblin Slayer - Goblin's Crown [CC][BD1080 HEVC10 AAC + QAAC Dual Audio]

Category:
Date:
2020-11-02 09:04 UTC
Submitter:
Seeders:
5
Information:
Leechers:
0
File size:
7.8 GiB
Completed:
298
Info hash:
4b1bc9832e9f139e979f77b364500fdf421a3e95
![alt text](https://i.slow.pics/fvprOqmc.png) ***JPBD Video & Audio source:*** [**_[mottoj]_**](https://nyaa.si/view/1267291) ***English Audio source:*** [**_[Golumpa]_**](https://nyaa.si/view/1296828) --- ##### **Audio's** ***English Audio AAC FUNImation*** ***Japanese Audio JPBD (FLAC - QAAC VBR Q 127)*** --- ##### **subs** ***CC - [naiyas] - [FUNimation]*** ***Full Subs. [naiyas] - [Crunchyroll]*** ***Subs restyled by me*** --- #### **Screenshots** ![alt text](https://i.slow.pics/8yxnpdbs.png) ![alt text](https://i.slow.pics/9KJihORp.png) **Media info:** ``` Unique ID : 283346686219777930419165426759575037326 (0xD52A96361F926F1DF50D24E443BC658E) Complete name : [naiyas] Goblin Slayer - Goblin's Crown [BD1080 HEVC10 AAC + QAAC Dual Audio].mkv Format : Matroska Format version : Version 4 File size : 7.78 GiB Duration : 1 h 0 min Overall bit rate : 18.5 Mb/s Movie name : [naiyas] Goblin Slayer - Goblin's Crown [BD1080 HEVC10 AAC + QAAC Dual Audio] Encoded date : UTC 2020-11-02 08:14:48 Writing application : mkvmerge v51.0.0 ('I Wish') 64-bit Writing library : libebml v1.4.0 + libmatroska v1.6.2 Attachments : HELVETICANEUELT-MEDIUM.TTF Video ID : 1 Format : HEVC Format/Info : High Efficiency Video Coding Format profile : Main 10@L4@Main Codec ID : V_MPEGH/ISO/HEVC Duration : 1 h 0 min Bit rate : 18.0 Mb/s Width : 1 920 pixels Height : 1 080 pixels Display aspect ratio : 16:9 Frame rate mode : Constant Frame rate : 23.976 (24000/1001) FPS Color space : YUV Chroma subsampling : 4:2:0 Bit depth : 10 bits Bits/(Pixel*Frame) : 0.363 Stream size : 7.57 GiB (97%) Writing library : x265 3.2+8-7fc1f6ef2b96:[Windows][GCC 9.2.1][64 bit] 10bit Encoding settings : cpuid=1111039 / frame-threads=16 / numa-pools=32 / wpp / no-pmode / no-pme / no-psnr / ssim / log-level=2 / input-csp=1 / input-res=1920x1080 / interlace=0 / total-frames=86424 / level-idc=0 / high-tier=1 / uhd-bd=0 / ref=5 / no-allow-non-conformance / no-repeat-headers / annexb / no-aud / no-hrd / info / hash=0 / no-temporal-layers / no-open-gop / min-keyint=23 / keyint=240 / gop-lookahead=0 / bframes=5 / b-adapt=2 / b-pyramid / bframe-bias=0 / rc-lookahead=24 / lookahead-slices=0 / scenecut=40 / radl=0 / no-splice / no-intra-refresh / ctu=32 / min-cu-size=8 / no-rect / no-amp / max-tu-size=32 / tu-inter-depth=3 / tu-intra-depth=3 / limit-tu=0 / rdoq-level=2 / dynamic-rd=0.00 / no-ssim-rd / signhide / no-tskip / nr-intra=0 / nr-inter=0 / no-constrained-intra / strong-intra-smoothing / max-merge=4 / limit-refs=1 / limit-modes / me=2 / subme=4 / merange=48 / temporal-mvp / no-frame-dup / hme / Level / weightp / weightb / no-analyze-src-pics / deblock=-1:-1 / no-sao / no-sao-non-deblock / rd=5 / selective-sao=0 / no-early-skip / rskip / no-fast-intra / no-tskip-fast / no-cu-lossless / b-intra / no-splitrd-skip / rdpenalty=0 / psy-rd=1.20 / psy-rdoq=1.60 / no-rd-refine / no-lossless / cbqpoffs=-2 / crqpoffs=-2 / rc=crf / crf=16.0 / qcomp=0.70 / qpstep=4 / stats-write=0 / stats-read=0 / ipratio=1.40 / pbratio=1.30 / aq-mode=3 / aq-strength=0.75 / cutree / zone-count=0 / no-strict-cbr / qg-size=32 / no-rc-grain / qpmax=69 / qpmin=0 / no-const-vbv / sar=0 / overscan=0 / videoformat=5 / range=0 / colorprim=1 / transfer=1 / colormatrix=1 / chromaloc=0 / display-window=0 / cll=0,0 / min-luma=0 / max-luma=1023 / log2-max-poc-lsb=8 / vui-timing-info / vui-hrd-info / slices=1 / no-opt-qp-pps / no-opt-ref-list-length-pps / no-multi-pass-opt-rps / scenecut-bias=0.01 / no-opt-cu-delta-qp / no-aq-motion / no-hdr / no-hdr-opt / no-dhdr10-opt / no-idr-recovery-sei / analysis-reuse-level=5 / scale-factor=0 / refine-intra=0 / refine-inter=0 / refine-mv=1 / refine-ctu-distortion=0 / no-limit-sao / ctu-info=0 / no-lowpass-dct / refine-analysis-type=0 / copy-pic=1 / max-ausize-factor=1.0 / no-dynamic-refine / no-single-sei / no-hevc-aq / no-svt / no-field / qp-adaptation-range=1.00 Language : Japanese Default : Yes Forced : No Color range : Limited Color primaries : BT.709 Transfer characteristics : BT.709 Matrix coefficients : BT.709 Audio #1 ID : 2 Format : AAC LC Format/Info : Advanced Audio Codec Low Complexity Codec ID : A_AAC-2 Duration : 59 min 50 s Bit rate : 253 kb/s Channel(s) : 2 channels Channel layout : L R Sampling rate : 48.0 kHz Frame rate : 46.875 FPS (1024 SPF) Compression mode : Lossy Delay relative to video : 12 s 129 ms Stream size : 108 MiB (1%) Title : English (WEB, AAC) CR Language : English Default : Yes Forced : No Audio #2 ID : 3 Format : AAC LC Format/Info : Advanced Audio Codec Low Complexity Codec ID : A_AAC-2 Duration : 1 h 0 min Bit rate : 244 kb/s Channel(s) : 2 channels Channel layout : L R Sampling rate : 48.0 kHz Frame rate : 46.875 FPS (1024 SPF) Compression mode : Lossy Delay relative to video : 20 ms Stream size : 105 MiB (1%) Title : QAAC VBR Q127 [naiyas] Language : Japanese Default : No Forced : No Text #1 ID : 4 Format : ASS Codec ID : S_TEXT/ASS Codec ID/Info : Advanced Sub Station Alpha Duration : 55 min 55 s Bit rate : 131 b/s Count of elements : 1044 Compression mode : Lossless Stream size : 54.0 KiB (0%) Title : CC/SDH - [naiyas] - [FUNimation] Language : English Default : Yes Forced : No Text #2 ID : 5 Format : ASS Codec ID : S_TEXT/ASS Codec ID/Info : Advanced Sub Station Alpha Duration : 55 min 53 s Bit rate : 94 b/s Count of elements : 737 Compression mode : Lossless Stream size : 38.7 KiB (0%) Title : Full Subs. [naiyas] - [Crunchyroll]-[Japanese based] Language : English Default : No Forced : No Menu 00:00:00.000 : en:01 00:02:18.304 : en:02 00:11:22.306 : en:03 00:25:21.478 : en:04 00:34:40.661 : en:05 00:44:10.064 : en:06 00:52:24.307 : en:07 00:56:34.224 : en:08

File list

  • [naiyas] Goblin Slayer - Goblin's Crown [BD1080 HEVC10 AAC + QAAC Dual Audio].mkv (7.8 GiB)
INB4 Herkz is here

sff

User
he will be. i think!

naiyas (uploader)

User
ahm he came out later
So same thing as: https://nyaa.si/view/1297141

naiyas (uploader)

User
@ChaoXide the video is the same but the subs that i'm using is from legitimate source plus the CC also the audio here also better quality in QAAC VBR Q127, also we're Adobe Audition to improve the quality of the lossy web track
Best thnx for doing this