[naiyas] Dimension W [BD 1080P HEVC10 E-AC-3 Dual Audio] + Specials

Category:
Date:
2020-11-01 10:26 UTC
Submitter:
Seeders:
2
Information:
Leechers:
0
File size:
14.3 GiB
Completed:
158
Info hash:
fed4f21257aa0cfe0e9b55f0010c493f87d34ce5
![alt text](https://i.slow.pics/4FIwjZ5B.png) --- ***Video source:*** [**_[VCB-Studio]_**](https://nyaa.si/view/1110774) ***English Audio & Subs.:*** [**_[Golumpa]_**](https://nyaa.si/view/960128) --- ***Please seed this torrent keep it alive ❤*** --- #### **Screenshots** ![alt text](https://i.slow.pics/rWsikc4t.png) ![alt text](https://i.slow.pics/9tav3Xop.png) ![alt text](https://i.slow.pics/pw07EXom.png) --- **General Media Info:** ``` Unique ID : 11820072943607185221859242318101008690 (0x8E4769712BA75DDD68394D0B458D132) Complete name : [naiyas] Dimension W [BD 1080P HEVC10 E-AC-3 Dual Audio].mkv Format : Matroska Format version : Version 4 File size : 1.01 GiB Duration : 24 min 14 s Overall bit rate : 5 978 kb/s Movie name : [naiyas] Dimension W - 01 [BD 1080P HEVC10 E-AC-3 Dual Audio] Encoded date : UTC 2020-11-01 03:25:44 Writing application : mkvmerge v51.0.0 ('I Wish') 64-bit Writing library : libebml v1.4.0 + libmatroska v1.6.2 Attachments : FF Tisa OT XBold Italic.ttf / FF Tisa OT XBold.ttf Video ID : 1 Format : HEVC Format/Info : High Efficiency Video Coding Format profile : Main 10@L4.1@High Codec ID : V_MPEGH/ISO/HEVC Duration : 24 min 14 s Bit rate : 4 650 kb/s Width : 1 920 pixels Height : 1 080 pixels Display aspect ratio : 16:9 Frame rate mode : Constant Frame rate : 23.976 (24000/1001) FPS Color space : YUV Chroma subsampling : 4:2:0 Bit depth : 10 bits Bits/(Pixel*Frame) : 0.094 Stream size : 806 MiB (78%) Writing library : x265 2.7+3-9086c8a3e76d:[Windows][MSVC 1900][64 bit] 10bit Encoding settings : cpuid=1173503 / frame-threads=4 / numa-pools=28 / wpp / no-pmode / no-pme / no-psnr / no-ssim / log-level=2 / input-csp=1 / input-res=1920x1080 / interlace=0 / total-frames=0 / level-idc=0 / high-tier=1 / uhd-bd=0 / ref=4 / no-allow-non-conformance / no-repeat-headers / annexb / no-aud / no-hrd / info / hash=0 / no-temporal-layers / no-open-gop / min-keyint=1 / keyint=360 / gop-lookahead=0 / bframes=6 / b-adapt=2 / b-pyramid / bframe-bias=-10 / rc-lookahead=80 / lookahead-slices=4 / scenecut=40 / radl=0 / no-intra-refresh / ctu=32 / min-cu-size=8 / no-rect / no-amp / max-tu-size=32 / tu-inter-depth=2 / tu-intra-depth=2 / limit-tu=4 / rdoq-level=2 / dynamic-rd=0.00 / no-ssim-rd / signhide / no-tskip / nr-intra=0 / nr-inter=0 / no-constrained-intra / no-strong-intra-smoothing / max-merge=3 / limit-refs=2 / limit-modes / me=3 / subme=3 / merange=44 / temporal-mvp / weightp / weightb / no-analyze-src-pics / deblock=0:0 / no-sao / no-sao-non-deblock / rd=5 / no-early-skip / rskip / no-fast-intra / no-tskip-fast / no-cu-lossless / b-intra / no-splitrd-skip / rdpenalty=0 / psy-rd=1.50 / psy-rdoq=1.20 / no-rd-refine / no-lossless / cbqpoffs=-3 / crqpoffs=-3 / rc=crf / crf=15.5 / qcomp=0.65 / qpstep=4 / stats-write=0 / stats-read=0 / vbv-maxrate=38000 / vbv-bufsize=45000 / vbv-init=0.9 / crf-max=0.0 / crf-min=0.0 / ipratio=1.30 / pbratio=1.15 / aq-mode=3 / aq-strength=0.80 / cutree / zone-count=0 / no-strict-cbr / qg-size=8 / no-rc-grain / qpmax=69 / qpmin=0 / no-const-vbv / sar=0 / overscan=0 / videoformat=5 / range=0 / colorprim=2 / transfer=2 / colormatrix=1 / chromaloc=0 / display-window=0 / max-cll=0,0 / min-luma=0 / max-luma=1023 / log2-max-poc-lsb=8 / vui-timing-info / vui-hrd-info / slices=1 / no-opt-qp-pps / no-opt-ref-list-length-pps / no-multi-pass-opt-rps / scenecut-bias=0.05 / no-opt-cu-delta-qp / no-aq-motion / no-hdr / no-hdr-opt / no-dhdr10-opt / analysis-reuse-level=5 / scale-factor=0 / refine-intra=0 / refine-inter=0 / refine-mv=0 / no-limit-sao / ctu-info=0 / no-lowpass-dct / refine-mv-type=0 / copy-pic=1 Language : Japanese Default : Yes Forced : No Color range : Limited Matrix coefficients : BT.709 Audio #1 ID : 2 Format : E-AC-3 Format/Info : Enhanced AC-3 Commercial name : Dolby Digital Plus Codec ID : A_EAC3 Duration : 24 min 13 s Bit rate mode : Constant Bit rate : 640 kb/s Channel(s) : 6 channels Channel layout : L R C LFE Ls Rs Sampling rate : 48.0 kHz Frame rate : 31.250 FPS (1536 SPF) Compression mode : Lossy Delay relative to video : 24 ms Stream size : 111 MiB (11%) Title : Surround 5.1 Language : English Service kind : Complete Main Default : Yes Forced : No Audio #2 ID : 3 Format : AC-3 Format/Info : Audio Coding 3 Commercial name : Dolby Digital Codec ID : A_AC3 Duration : 24 min 13 s Bit rate mode : Constant Bit rate : 640 kb/s Channel(s) : 2 channels Channel layout : L R Sampling rate : 48.0 kHz Frame rate : 31.250 FPS (1536 SPF) Compression mode : Lossy Delay relative to video : 24 ms Stream size : 111 MiB (11%) Title : Stereo Language : Japanese Service kind : Complete Main Default : No Forced : No Text #1 ID : 4 Format : ASS Codec ID : S_TEXT/ASS Codec ID/Info : Advanced Sub Station Alpha Duration : 23 min 36 s Bit rate : 21.0 kb/s Count of elements : 8101 Compression mode : Lossless Stream size : 3.55 MiB (0%) Title : Signs and Songs - DDY - Edited Language : English Default : Yes Forced : No Text #2 ID : 5 Format : ASS Codec ID : S_TEXT/ASS Codec ID/Info : Advanced Sub Station Alpha Duration : 23 min 46 s Bit rate : 21.0 kb/s Count of elements : 8395 Compression mode : Lossless Stream size : 3.56 MiB (0%) Title : DDY - Edited Language : English Default : No Forced : No Menu 00:00:00.000 : :Chapter 01 00:02:19.013 : :Chapter 02 00:03:49.020 : :Chapter 03 00:12:54.690 : :Chapter 04 00:22:37.105 : :Chapter 05 00:24:08.113 : :Chapter 06

File list

  • [naiyas] Dimension W [BD 1080P HEVC10 E-AC-3 Dual Audio]
    • CDs
      • [160127] 「Genesis」/STEREO DIVE FOUNDATION (flac+webp)
        • Scans
          • LACM-14434_01.webp (318.3 KiB)
          • LACM-14434_02.webp (22.5 KiB)
          • LACM-14434_03.webp (210.7 KiB)
          • LACM-14434_04.webp (451.3 KiB)
          • LACM-14434_05.webp (991.3 KiB)
          • LACM-14434_06.webp (2.1 MiB)
          • LACM-14434_07.webp (3.1 MiB)
          • LACM-14434_08.webp (1.2 MiB)
          • LACM-14434_09.webp (1.1 MiB)
          • LACM-14434_10.webp (347.4 KiB)
          • LACM-14434_11.webp (510.7 KiB)
          • LACM-14434_12.webp (1.0 MiB)
          • LACM-14434_13.webp (2.0 MiB)
          • LACM-14434_14.webp (1.4 MiB)
          • LACM-14434_15.webp (1.2 MiB)
          • LACM-14434_16.webp (3.1 MiB)
          • LACM-14434_17.webp (1.7 MiB)
          • LACM-14434_18.webp (742.9 KiB)
          • LACM-14435_01.webp (319.0 KiB)
          • LACM-14435_02.webp (22.5 KiB)
          • LACM-14435_03.webp (186.5 KiB)
          • LACM-14435_04.webp (451.8 KiB)
          • LACM-14435_05.webp (1012.5 KiB)
          • LACM-14435_06.webp (634.5 KiB)
          • LACM-14435_07.webp (1.9 MiB)
          • LACM-14435_08.webp (557.7 KiB)
          • LACM-14435_09.webp (60.6 KiB)
        • LACM-14434.cue (489 Bytes)
        • LACM-14434.flac (92.8 MiB)
        • LACM-14434.jpg (232.7 KiB)
        • LACM-14434.log (3.5 KiB)
        • LACM-14435.cue (400 Bytes)
        • LACM-14435.flac (94.6 MiB)
        • LACM-14435.jpg (1.6 MiB)
        • LACM-14435.log (5.2 KiB)
      • [160203] 「Contrast」/Fo'xTails (flac+jpg)
        • Scans
          • 01.jpg (4.2 MiB)
          • 02.jpg (6.0 MiB)
          • 03.jpg (7.4 MiB)
          • 04.jpg (6.8 MiB)
          • 05.jpg (6.5 MiB)
          • 06.jpg (4.2 MiB)
          • 07.jpg (3.7 MiB)
          • 08.jpg (2.9 MiB)
        • LACM-14436.cue (497 Bytes)
        • LACM-14436.flac (84.5 MiB)
        • LACM-14436.jpg (284.0 KiB)
        • LACM-14436.log (2.8 KiB)
      • [160323] オリジナルサウンドトラック 「Resonance W」 (flac+webp)
        • Scans
          • Back_In.webp (766.4 KiB)
          • Back_Out.webp (735.3 KiB)
          • Booklet01_02.webp (2.0 MiB)
          • Disc1.webp (263.4 KiB)
          • Disc2.webp (305.2 KiB)
          • Front&Back.webp (392.0 KiB)
          • Obi_In.webp (1.6 MiB)
          • Obi_Out.webp (258.6 KiB)
          • Pack_Back.webp (404.6 KiB)
          • Pack_Front.webp (368.7 KiB)
        • Cover.jpg (161.2 KiB)
        • LACA-9444.cue (3.7 KiB)
        • LACA-9444.flac (386.7 MiB)
        • LACA-9444.log (9.5 KiB)
        • LACA-9445.cue (4.0 KiB)
        • LACA-9445.flac (401.2 MiB)
        • LACA-9445.log (10.0 KiB)
    • NCOPED
      • [naiyas] Dimension W - NCED [BD 1080P HEVC10 E-AC-3].mkv (67.1 MiB)
      • [naiyas] Dimension W - NCOP01 [BD 1080P HEVC10 E-AC-3].mkv (88.9 MiB)
      • [naiyas] Dimension W - NCOP02 [BD 1080P HEVC10 E-AC-3].mkv (68.3 MiB)
      • [naiyas] Dimension W - NCOP03 [BD 1080P HEVC10 E-AC-3].mkv (88.9 MiB)
      • [naiyas] Dimension W - NCOP04 [BD 1080P HEVC10 E-AC-3].mkv (88.5 MiB)
      • [naiyas] Dimension W - NCOP05 [BD 1080P HEVC10 E-AC-3].mkv (89.6 MiB)
    • Specials
      • [naiyas] Dimension W (PV01 Eng Ver.)[BD 1080P HEVC10 FLAC].mkv (63.1 MiB)
      • [naiyas] Dimension W - 13 (Special) [BD 1080P HEVC10 E-AC-3 Dual Audio].mkv (419.0 MiB)
      • [naiyas] Dimension W - Rose's Counseling Room 1 [BD 1080P HEVC10 E-AC-3 Dual Audio].mkv (99.2 MiB)
      • [naiyas] Dimension W - Rose's Counseling Room 2 [BD 1080P HEVC10 E-AC-3 Dual Audio].mkv (128.0 MiB)
      • [naiyas] Dimension W - Rose's Counseling Room 3 [BD 1080P HEVC10 E-AC-3 Dual Audio].mkv (87.8 MiB)
      • [naiyas] Dimension W - Rose's Counseling Room 4 [BD 1080P HEVC10 E-AC-3 Dual Audio].mkv (151.2 MiB)
      • [naiyas] Dimension W - Rose's Counseling Room 5 [BD 1080P HEVC10 E-AC-3 Dual Audio].mkv (120.9 MiB)
    • [naiyas] Dimension W - 01 [BD 1080P HEVC10 E-AC-3 Dual Audio].mkv (1.0 GiB)
    • [naiyas] Dimension W - 02 [BD 1080P HEVC10 E-AC-3 Dual Audio].mkv (1.1 GiB)
    • [naiyas] Dimension W - 03 [BD 1080P HEVC10 E-AC-3 Dual Audio].mkv (984.5 MiB)
    • [naiyas] Dimension W - 04 [BD 1080P HEVC10 E-AC-3 Dual Audio].mkv (1000.7 MiB)
    • [naiyas] Dimension W - 05 [BD 1080P HEVC10 E-AC-3 Dual Audio].mkv (1.1 GiB)
    • [naiyas] Dimension W - 06 [BD 1080P HEVC10 E-AC-3 Dual Audio].mkv (898.0 MiB)
    • [naiyas] Dimension W - 07 [BD 1080P HEVC10 E-AC-3 Dual Audio].mkv (976.6 MiB)
    • [naiyas] Dimension W - 08 [BD 1080P HEVC10 E-AC-3 Dual Audio].mkv (896.6 MiB)
    • [naiyas] Dimension W - 09 [BD 1080P HEVC10 E-AC-3 Dual Audio].mkv (939.7 MiB)
    • [naiyas] Dimension W - 10 [BD 1080P HEVC10 E-AC-3 Dual Audio].mkv (928.7 MiB)
    • [naiyas] Dimension W - 11 [BD 1080P HEVC10 E-AC-3 Dual Audio].mkv (1.0 GiB)
    • [naiyas] Dimension W - 12 [BD 1080P HEVC10 E-AC-3 Dual Audio].mkv (943.6 MiB)

naiyas (uploader)

User
##### **Next Release:** ***Kanata no Astra (Astra Lost in Space)***
not setting the full subs as default this time

naiyas (uploader)

User
@sameer **cuz the audio is crystal clear**