[naiyas] Fate Apocrypha [BD 1080P HEVC10 QAAC Dual Audio]

Category:
Date:
2020-10-28 07:06 UTC
Submitter:
Seeders:
4
Information:
Leechers:
2
File size:
12.0 GiB
Completed:
289
Info hash:
2ba669a1275f2c8f3d35d131c7a574cf41b523a5
![alt text](https://i.slow.pics/uy06km4I.png) ***Video & Japanese subtitles source:*** [**_[Snow-Raws,REV]_**](https://nyaa.si/view/1026250) ***Audio & English subtitles source:*** [**_[AC]_**](https://nyaa.si/view/1196891) ##### ***All audio are encoded in : **[QAAC VBR Q127]** to ensure the quality*** ------ ##### ***Please seed to this torrent after downloading to keep it alive ❤*** --- ##### ***Fate/Series list:*** [_**[naiyas] Fate Zero [BD1080P HEVC10 AAC Dual Audio]v0**_](https://nyaa.si/view/1281438) [_**[naiyas] Fate Zero [BD 1080P HEVC10 QAACx2 Dual Audio]v1**_](https://nyaa.si/view/1284601) [_**[naiyas] Fate Stay Night - Unlimited Blade Works S1 & S2 + Special | Extras [BD 1080P HEVC10 QAACx2 Dual Audio]**_](https://nyaa.si/view/1284808) [_**[naiyas] Fate Stay Night - Unlimited Blade Works Movie [BD 1080P HEVC10 QAACx2 Dual Audio]**_](https://nyaa.si/view/1284990) [_**[naiyas] 「Fate stay night [Heaven's Feel] - I presage flower」[BD 1080P HEVC10 QAACx2 5.1 Dual Audio]**_](https://nyaa.si/view/1285210) [_**[naiyas] 「Fate Stay Night [Heaven's Feel] - II lost butterfly」[BD 1080P HEVC10 QAACx2 Dual Audio]**_](https://nyaa.si/view/1285864) --- ##### ***Plot: Fate/Apocrypha takes place in an alternate timeline from Fate/stay night. In the Third Holy Grail War, Darnic Prestone Yggdmillennia steals the Greater Grail, smuggling it to Romania. Sixty years later, the Yggdmillennia clan declare war upon the Mage’s Association in the Greater Grail War, pitting two teams of Servants against one another. Yggdmillennia and the Mage’s Association’s teams are referred to as the Black and Red factions respectively.*** --- #### **Screenshots:** ![alt text](https://i.slow.pics/n98qlj6t.png) ![alt text](https://i.slow.pics/ytZgGR17.png) ![alt text](https://i.slow.pics/lTjKFGYs.png) --- **General Media Info:** ``` Unique ID : 244706397549640227130560466698059141702 (0xB818BCE48CD41D0FB18200F6BEE85246) Complete name : BD 1080P HEVC10 QAAC Dual Audio]\[naiyas] Fate Apocrypha - 09 [BD 1080P HEVC10 QAAC Dual Audio].mkv Format : Matroska Format version : Version 4 File size : 607 MiB Duration : 23 min 47 s Overall bit rate : 3 571 kb/s Movie name : [naiyas] Fate Apocrypha - 09 [BD 1080P HEVC10 QAAC Dual Audio] Encoded date : UTC 2020-10-16 10:16:57 Writing application : mkvmerge v51.0.0 ('I Wish') 64-bit Writing library : libebml v1.4.0 + libmatroska v1.6.2 Attachments : FOT-TSUKUOLDGOTHICSTD-B-EN.TTF / MERRIWEATHER-BOLD.OTF / NEWCINEMAASTD-D.TTF / Profile-Medium.otf / Profile-MediumItalic.otf / THINK NOTHING.OTF / FOT-MATISSEPRO-B-TOARU.TTF / FOT-MATISSEPRO-EB-TOARU.TTF Video ID : 1 Format : HEVC Format/Info : High Efficiency Video Coding Format profile : Main 10@L4@Main Codec ID : V_MPEGH/ISO/HEVC Duration : 23 min 47 s Bit rate : 2 896 kb/s Width : 1 920 pixels Height : 1 080 pixels Display aspect ratio : 16:9 Frame rate mode : Constant Frame rate : 23.976 (24000/1001) FPS Color space : YUV Chroma subsampling : 4:2:0 Bit depth : 10 bits Bits/(Pixel*Frame) : 0.058 Stream size : 493 MiB (81%) Writing library : x265 0.0:[Cygwin][GCC 6.4.0][64 bit] 10bit Encoding settings : encoder=x265_kmod_2.6 / frame-threads=5 / wpp / no-pmode / no-pme / no-psnr / no-ssim / log-level=2 / input-csp=1 / input-res=1920x1080 / interlace=0 / total-frames=0 / level-idc=0 / high-tier=1 / uhd-bd=0 / ref=4 / no-allow-non-conformance / no-repeat-headers / annexb / no-aud / no-hrd / info / hash=0 / no-temporal-layers / open-gop / min-keyint=23 / keyint=324 / bframes=6 / b-adapt=2 / b-pyramid / bframe-bias=0 / rc-lookahead=20 / lookahead-slices=6 / scenecut=40 / no-intra-refresh / ctu=32 / min-cu-size=8 / no-rect / no-amp / max-tu-size=32 / tu-inter-depth=1 / tu-intra-depth=1 / limit-tu=0 / rdoq-level=2 / dynamic-rd=0.00 / no-ssim-rd / signhide / no-tskip / nr-intra=0 / nr-inter=0 / no-constrained-intra / no-strong-intra-smoothing / max-merge=5 / limit-refs=3 / no-limit-modes / me=3 / subme=4 / merange=36 / temporal-mvp / weightp / no-weightb / no-analyze-src-pics / deblock=-1:-1 / no-sao / no-sao-non-deblock / rd=4 / no-early-skip / rskip / no-fast-intra / no-tskip-fast / no-cu-lossless / no-b-intra / no-splitrd-skip / rdpenalty=0 / psy-rd=2.00 / psy-rdoq=0.90 / no-rd-refine / analysis-reuse-mode=0 / no-lossless / cbqpoffs=0 / crqpoffs=0 / rc=crf / crf=16.0 / qcomp=0.65 / qpstep=4 / stats-write=0 / stats-read=0 / ipratio=1.40 / pbratio=1.30 / aq-mode=2 / aq-strength=0.90 / cutree / zone-count=0 / no-strict-cbr / qg-size=32 / no-rc-grain / qpmax=69 / qpmin=0 / no-const-vbv / sar=0 / overscan=0 / videoformat=5 / range=0 / colorprim=2 / transfer=2 / colormatrix=2 / chromaloc=0 / display-window=0 / max-cll=0,0 / min-luma=0 / max-luma=1023 / log2-max-poc-lsb=8 / vui-timing-info / vui-hrd-info / slices=1 / no-opt-qp-pps / no-opt-ref-list-length-pps / no-multi-pass-opt-rps / scenecut-bias=0.05 / no-opt-cu-delta-qp / no-aq-motion / no-hdr / no-hdr-opt / no-dhdr10-opt / analysis-reuse-level=5 / scale-factor=0 / refine-intra=0 / refine-inter=0 / refine-mv=0 / no-limit-sao / ctu-info=0 / no-lowpass-dct / refine-mv-type=0 / copy-pic=1 Language : Japanese Default : Yes Forced : No Audio #1 ID : 2 Format : AAC LC Format/Info : Advanced Audio Codec Low Complexity Codec ID : A_AAC-2 Duration : 23 min 47 s Bit rate : 288 kb/s Channel(s) : 2 channels Channel layout : L R Sampling rate : 48.0 kHz Frame rate : 46.875 FPS (1024 SPF) Compression mode : Lossy Delay relative to video : 20 ms Stream size : 49.0 MiB (8%) Title : QAAC VBR Q127 [naiyas] Language : English Default : Yes Forced : No Audio #2 ID : 3 Format : AAC LC Format/Info : Advanced Audio Codec Low Complexity Codec ID : A_AAC-2 Duration : 23 min 47 s Bit rate : 295 kb/s Channel(s) : 2 channels Channel layout : L R Sampling rate : 48.0 kHz Frame rate : 46.875 FPS (1024 SPF) Compression mode : Lossy Delay relative to video : 20 ms Stream size : 50.1 MiB (8%) Title : QAAC VBR Q127 [naiyas] Language : Japanese Default : No Forced : No Text #1 ID : 4 Format : ASS Codec ID : S_TEXT/ASS Codec ID/Info : Advanced Sub Station Alpha Duration : 23 min 34 s Bit rate : 2 370 b/s Count of elements : 4078 Compression mode : Lossless Stream size : 409 KiB (0%) Title : Full Subtitles [UTW/Netflix][Japanese based] Language : English Default : Yes Forced : No Text #2 ID : 5 Format : PGS Muxing mode : zlib Codec ID : S_HDMV/PGS Codec ID/Info : Picture based subtitle format used on BDs/HD-DVDs Duration : 23 min 35 s Bit rate : 179 kb/s Count of elements : 1682 Stream size : 30.1 MiB (5%) Title : Full Subtitles [JPBD] Language : Japanese Default : No Forced : No Menu 00:00:00.000 : en:Avant 00:01:36.013 : en:OP 00:03:10.982 : en:Part A 00:06:32.934 : en:Part B 00:10:13.863 : en:Part C 00:12:35.004 : en:Part D 00:16:24.775 : en:Part E 00:21:58.984 : en:ED 00:23:28.991 : en:Part F

File list

  • [naiyas] Fate Apocrypha [BD 1080P HEVC10 QAAC Dual Audio]
    • NCOPED [Hi - Res][FLAC 24 bits 96kHz]
      • [naiyas] Fate Apocrypha NCED 1 [BD 1080P HEVC10 FLAC 24 bits].mkv (77.1 MiB)
      • [naiyas] Fate Apocrypha NCED 2 [BD 1080P HEVC10 FLAC 24 bits].mkv (44.9 MiB)
      • [naiyas] Fate Apocrypha NCOP 1 [BD 1080P HEVC10 FLAC 24 bits].mkv (73.1 MiB)
      • [naiyas] Fate Apocrypha NCOP 2 [BD 1080P HEVC10 FLAC 24 bits].mkv (61.2 MiB)
    • [naiyas] Fate Apocrypha - 01 [BD 1080P HEVC10 QAAC Dual Audio].mkv (487.0 MiB)
    • [naiyas] Fate Apocrypha - 02 [BD 1080P HEVC10 QAAC Dual Audio].mkv (485.8 MiB)
    • [naiyas] Fate Apocrypha - 03 [BD 1080P HEVC10 QAAC Dual Audio].mkv (508.4 MiB)
    • [naiyas] Fate Apocrypha - 04 [BD 1080P HEVC10 QAAC Dual Audio].mkv (578.3 MiB)
    • [naiyas] Fate Apocrypha - 05 [BD 1080P HEVC10 QAAC Dual Audio].mkv (392.2 MiB)
    • [naiyas] Fate Apocrypha - 06 [BD 1080P HEVC10 QAAC Dual Audio].mkv (440.8 MiB)
    • [naiyas] Fate Apocrypha - 07 [BD 1080P HEVC10 QAAC Dual Audio].mkv (463.7 MiB)
    • [naiyas] Fate Apocrypha - 08 [BD 1080P HEVC10 QAAC Dual Audio].mkv (511.9 MiB)
    • [naiyas] Fate Apocrypha - 09 [BD 1080P HEVC10 QAAC Dual Audio].mkv (607.5 MiB)
    • [naiyas] Fate Apocrypha - 10 [BD 1080P HEVC10 QAAC Dual Audio].mkv (533.8 MiB)
    • [naiyas] Fate Apocrypha - 11 [BD 1080P HEVC10 QAAC Dual Audio].mkv (536.1 MiB)
    • [naiyas] Fate Apocrypha - 12 [BD 1080P HEVC10 QAAC Dual Audio].mkv (461.1 MiB)
    • [naiyas] Fate Apocrypha - 13 [BD 1080P HEVC10 QAAC Dual Audio].mkv (470.4 MiB)
    • [naiyas] Fate Apocrypha - 14 [BD 1080P HEVC10 QAAC Dual Audio].mkv (463.9 MiB)
    • [naiyas] Fate Apocrypha - 15 [BD 1080P HEVC10 QAAC Dual Audio].mkv (361.9 MiB)
    • [naiyas] Fate Apocrypha - 16 [BD 1080P HEVC10 QAAC Dual Audio].mkv (369.2 MiB)
    • [naiyas] Fate Apocrypha - 17 [BD 1080P HEVC10 QAAC Dual Audio].mkv (418.2 MiB)
    • [naiyas] Fate Apocrypha - 18 [BD 1080P HEVC10 QAAC Dual Audio].mkv (417.9 MiB)
    • [naiyas] Fate Apocrypha - 19 [BD 1080P HEVC10 QAAC Dual Audio].mkv (350.5 MiB)
    • [naiyas] Fate Apocrypha - 20 [BD 1080P HEVC10 QAAC Dual Audio].mkv (442.2 MiB)
    • [naiyas] Fate Apocrypha - 21 [BD 1080P HEVC10 QAAC Dual Audio].mkv (529.1 MiB)
    • [naiyas] Fate Apocrypha - 22 [BD 1080P HEVC10 QAAC Dual Audio].mkv (630.3 MiB)
    • [naiyas] Fate Apocrypha - 23 [BD 1080P HEVC10 QAAC Dual Audio].mkv (528.0 MiB)
    • [naiyas] Fate Apocrypha - 24 [BD 1080P HEVC10 QAAC Dual Audio].mkv (501.5 MiB)
    • [naiyas] Fate Apocrypha - 25 [BD 1080P HEVC10 QAAC Dual Audio].mkv (522.9 MiB)

naiyas (uploader)

User
##### ***Next*** #### **Fate/kaleid liner Prisma☆Illya**
Naiyas, you kept the video stream intact from source, and just converted the FLAC audio to AAC, right? Just asking, nothing else. Source doesn't list mediainfo.

naiyas (uploader)

User
@LordanS yeah | **FLAC** converted to **QAAC**
Alright, thanks! I'll help you seed for a while again.

naiyas (uploader)

User
**@LordanS** ##### **✝⏸✖**
so does this use utw for songs and netflix for dialogue? because utw skipped like 4-5 lines at points and like one of the lines in the last fight lmao

naiyas (uploader)

User
@orangepumpkin probably yes
more seed please, stuck on 84%