ReoNa Dive Connect @ Zepp Online Vol. 6 [WEBRip] [1080p] [AAC]

Category:
Date:
2020-10-20 01:12 UTC
Submitter:
Seeders:
1
Information:
MosH#2317 in Discord
Leechers:
1
File size:
1.3 GiB
Completed:
190
Info hash:
999087366e8d018dcfe7df8fe55a42ba0fd0e6fb
source is from bilibili, I download separate audio and video and muxed using MKVToolnix. sorry for the quality. here is the mediainfo: General Unique ID : 196935076583401223701718344857039826704 (0x942850EC889B3DA2E28DB264414A6F10) Format : Matroska Format version : Version 4 File size : 1.26 GiB Duration : 1 h 36 min Overall bit rate : 1 869 kb/s Encoded date : UTC 2020-10-20 00:59:39 Writing application : mkvmerge v45.0.0 ('Heaven in Pennies') 64-bit Writing library : libebml v1.3.10 + libmatroska v1.5.2 Video ID : 1 Format : AVC Format/Info : Advanced Video Codec Format profile : High@L5 Format settings : CABAC / 6 Ref Frames Format settings, CABAC : Yes Format settings, Reference fra : 6 frames Codec ID : V_MPEG4/ISO/AVC Duration : 1 h 36 min Bit rate : 1 771 kb/s Width : 1 920 pixels Height : 1 080 pixels Display aspect ratio : 16:9 Frame rate mode : Constant Frame rate : 30.000 FPS Color space : YUV Chroma subsampling : 4:2:0 Bit depth : 8 bits Scan type : Progressive Bits/(Pixel*Frame) : 0.028 Stream size : 1.19 GiB (95%) Default : Yes Forced : No Color range : Limited Transfer characteristics : BT.709 Matrix coefficients : BT.709 Audio ID : 2 Format : AAC LC Format/Info : Advanced Audio Codec Low Complexity Codec ID : A_AAC-2 Duration : 1 h 36 min Bit rate : 96.0 kb/s Channel(s) : 2 channels Channel layout : L R Sampling rate : 48.0 kHz Frame rate : 46.875 FPS (1024 SPF) Compression mode : Lossy Stream size : 66.0 MiB (5%) Default : Yes Forced : No hope you enjoy the quality. and also seed this after you download, i can't seed this always ~ Message me in discord if you want some request.

File list

  • ReoNa Dive_Connect @Zepp Online Vol.6.mkv (1.3 GiB)