[NSBC] Sirens no Zange E01 [HDTV] [720p]

Category:
Date:
2020-10-19 03:54 UTC
Submitter:
Seeders:
3
Information:
TlNCQy50bwo=
Leechers:
0
File size:
1.2 GiB
Completed:
1120
Info hash:
6a5ec98c8ce4362d3fba41ac81273943a3d93adb
> Visit [HERE](https://justpaste.it/nsbc) ![](https://img.topddl.net/images/2020/10/19/sirens.jpg "") ![](https://img.topddl.net/images/2020/10/19/Sirens-no-Zange-S01E01-720p-HDTV-AAC-x264-NSBC.mkv.jpg "") ``` General Unique ID : 175934964207490630903037302506859667691 (0x845BD771FEF71967B85A57AEC01620EB) Complete name : Sirens no Zange S01E01 720p HDTV AAC x264-NSBC.mkv Format : Matroska Format version : Version 4 File size : 1.22 GiB Duration : 55 min 0 s Overall bit rate : 3 187 kb/s Movie name : Sirens no Zange S01E01 720p HDTV AAC x264-NSBC Encoded date : UTC 2020-10-19 03:47:27 Writing application : mkvmerge v29.0.0 ('Like It Or Not') 64-bit Writing library : libebml v1.3.6 + libmatroska v1.4.9 Video ID : 1 Format : AVC Format/Info : Advanced Video Codec Format profile : High@L4.1 Format settings : CABAC / 9 Ref Frames Format settings, CABAC : Yes Format settings, Reference frames : 9 frames Codec ID : V_MPEG4/ISO/AVC Duration : 54 min 59 s Bit rate : 2 992 kb/s Width : 1 280 pixels Height : 720 pixels Display aspect ratio : 16:9 Frame rate mode : Constant Frame rate : 29.970 (30000/1001) FPS Color space : YUV Chroma subsampling : 4:2:0 Bit depth : 8 bits Scan type : Progressive Bits/(Pixel*Frame) : 0.108 Stream size : 1.15 GiB (94%) Title : [NSBC] Writing library : x264 core 161 r3015 4c2aafd Encoding settings : cabac=1 / ref=9 / deblock=1:-3:-3 / analyse=0x3:0x113 / me=umh / subme=9 / psy=1 / psy_rd=1.00:0.15 / mixed_ref=1 / me_range=16 / chroma_me=1 / trellis=2 / 8x8dct=1 / cqm=0 / deadzone=21,11 / fast_pskip=1 / chroma_qp_offset=-3 / threads=12 / lookahead_threads=1 / sliced_threads=0 / nr=0 / decimate=1 / interlaced=0 / bluray_compat=0 / constrained_intra=0 / bframes=12 / b_pyramid=2 / b_adapt=1 / b_bias=0 / direct=1 / weightb=1 / open_gop=0 / weightp=2 / keyint=250 / keyint_min=25 / scenecut=40 / intra_refresh=0 / rc_lookahead=30 / rc=crf / mbtree=1 / crf=18.0 / qcomp=0.60 / qpmin=0 / qpmax=69 / qpstep=4 / vbv_maxrate=30000 / vbv_bufsize=25000 / crf_max=0.0 / nal_hrd=none / filler=0 / ip_ratio=1.40 / aq=1:1.00 Default : Yes Forced : No Color range : Limited Color primaries : BT.709 Transfer characteristics : BT.709 Matrix coefficients : BT.709 Audio ID : 2 Format : AAC LC Format/Info : Advanced Audio Codec Low Complexity Codec ID : A_AAC-2 Duration : 55 min 0 s Bit rate : 192 kb/s Channel(s) : 2 channels Channel layout : L R Sampling rate : 48.0 kHz Frame rate : 46.875 FPS (1024 SPF) Compression mode : Lossy Delay relative to video : 10 ms Stream size : 75.5 MiB (6%) Title : [NSBC] Language : Japanese Default : Yes Forced : No ```

File list

  • Sirens no Zange S01E01 720p HDTV AAC x264-NSBC.mkv (1.2 GiB)
i want download Fictitious Girl's Diary The Movie at https://justpaste.it/nsbc,but it always failed it always show "Error: Your storage quota has been exceeded Delete some data on your Google Drive and empty the trash folder, then refresh this page and try to download again!"

NOSoba (uploader)

User
that means your drive is full, delete some files or create a new one...
@NOSoba: is the framerate correct on this on (shouldn't it be 23.976, at least for the main part)? Maybe requires some detelecine, no?